CD 1

Match: http://redump.org/disc/34690/
Logs: https://drive.google.com/open?id=1XaA84 … V9FdwfF4c1

Common Disc Info:
    Title: Outlaws
    Foreign Title (Non-latin): 
    Disc Number / Letter: 1
    Disc Title: (OPTIONAL)
    System: IBM PC Compatible
    Media Type: CD-ROM
    Category: Games
    Matching IDs: 34690
    Region: Europe
    Languages: English
    Disc Serial: 3000009.101.UK

    Ringcode Information:
        Mastering Code (laser branded/etched): Sono press ROMM X-8490/ 39101UK A
        Mastering SID Code: IFPI LB46
        Data-Side Mould SID Code: IFPI 0751
        Label-Side Mould SID Code: (REQUIRED, IF EXISTS)
        Additional Mould: (REQUIRED, IF EXISTS)
        Toolstamp or Mastering Code (engraved/stamped): (REQUIRED, IF EXISTS)
    Barcode: 0 23272 99802 8
    Error Count: 0
    Comments: [T:ISBN] (OPTIONAL)
    Contents: (OPTIONAL)

Version and Editions:
    Version: 2.0
    Edition/Release: LucasArts Classics

Extras:
    Primary Volume Descriptor (PVD):

0320 : 20 20 20 20 20 20 20 20  20 20 20 20 20 31 39 39                199
0330 : 37 30 38 31 34 31 31 33  39 33 30 30 30 00 31 39   7081411393000.19
0340 : 39 37 30 38 31 34 31 31  33 39 33 30 30 30 00 31   97081411393000.1
0350 : 39 39 37 00 38 31 34 31  31 33 39 33 30 30 30 00   997.81411393000.
0360 : 31 39 39 37 00 38 31 34  31 31 33 39 33 30 30 30   1997.81411393000
0370 : 00 01 00 00 00 00 00 00  00 00 00 00 00 00 00 00   ................

Copy Protection:
    Copy Protection: 

Tracks and Write Offsets:
    DAT:

<rom name="OUTLAWS_1 (Track 1).bin" size="396829440" crc="0668ff56" md5="6ca1a77da502030df02796a7b897ff75" sha1="db739d049b25759a005f45d1b32df5b45ca75d85" />
<rom name="OUTLAWS_1 (Track 2).bin" size="35254128" crc="c2c8a047" md5="ecd5a481ad3ceec4f4b6aa2ad43e036b" sha1="c34de6e2796caa9d22f8ba9b1cf70772e4b7d466" />
<rom name="OUTLAWS_1 (Track 3).bin" size="45936912" crc="39a4c9ee" md5="e05d068a78b156a2de5de549fa4637bc" sha1="20d4d675d4ef30f6914d13e358e56c4bd25629ef" />
<rom name="OUTLAWS_1 (Track 4).bin" size="40701360" crc="73dbe1e6" md5="9580d1cc1d3753d40ecadb599018a3e2" sha1="51c3034324be622d35b03271c985033068703a29" />
<rom name="OUTLAWS_1 (Track 5).bin" size="41145888" crc="ac93fdd0" md5="4ec7aaec06b986fcf1526b83a5c28439" sha1="830309b8d533817bbcf003d5e4053847de26b583" />
<rom name="OUTLAWS_1 (Track 6).bin" size="50784384" crc="2e7833c5" md5="89fa4f7c0da93d83e61184ace30dbeed" sha1="8a64747f979f759ae0724a8fd07cdb42a3f09bb7" />
<rom name="OUTLAWS_1 (Track 7).bin" size="39518304" crc="5cedb881" md5="9407055b091822dca7f60109a089ad13" sha1="327bf0c0f983e442115db50083abeeb753897e15" />
<rom name="OUTLAWS_1 (Track 8).bin" size="38278800" crc="2761f10f" md5="1249ef1c1db499462f5fd8387e92492e" sha1="7aec02772fdf94060b38e83b951cac02c5715540" />

    Cuesheet:

CATALOG 0000000000000
FILE "OUTLAWS_1 (Track 1).bin" BINARY
  TRACK 01 MODE1/2352
    INDEX 01 00:00:00
FILE "OUTLAWS_1 (Track 2).bin" BINARY
  TRACK 02 AUDIO
    INDEX 00 00:00:00
    INDEX 01 00:02:00
FILE "OUTLAWS_1 (Track 3).bin" BINARY
  TRACK 03 AUDIO
    INDEX 00 00:00:00
    INDEX 01 00:01:74
FILE "OUTLAWS_1 (Track 4).bin" BINARY
  TRACK 04 AUDIO
    INDEX 00 00:00:00
    INDEX 01 00:01:74
FILE "OUTLAWS_1 (Track 5).bin" BINARY
  TRACK 05 AUDIO
    INDEX 00 00:00:00
    INDEX 01 00:01:74
FILE "OUTLAWS_1 (Track 6).bin" BINARY
  TRACK 06 AUDIO
    INDEX 00 00:00:00
    INDEX 01 00:01:74
FILE "OUTLAWS_1 (Track 7).bin" BINARY
  TRACK 07 AUDIO
    INDEX 00 00:00:00
    INDEX 01 00:01:74
FILE "OUTLAWS_1 (Track 8).bin" BINARY
  TRACK 08 AUDIO
    INDEX 00 00:00:00
    INDEX 01 00:01:74

    Write Offset: -12

CD 2

Match: http://redump.org/disc/34691/
Logs: https://drive.google.com/open?id=1wT2SI … cmLuUgfnxN

Common Disc Info:
    Title: Outlaws
    Foreign Title (Non-latin): 
    Disc Number / Letter: 2
    Disc Title: (OPTIONAL)
    System: IBM PC Compatible
    Media Type: CD-ROM
    Category: Games
    Matching IDs: 34691
    Region: Europe
    Languages: English
    Disc Serial: 3000009.102.UK

    Ringcode Information:
        Mastering Code (laser branded/etched): Sono press ROMM X-8486/ 39102UK B
        Mastering SID Code: IFPI 0783
        Data-Side Mould SID Code: IFPI L024
        Label-Side Mould SID Code: (REQUIRED, IF EXISTS)
        Additional Mould: (REQUIRED, IF EXISTS)
        Toolstamp or Mastering Code (engraved/stamped): (REQUIRED, IF EXISTS)
    Barcode: 0 23272 99802 8
    Error Count: 0
    Comments: [T:ISBN] (OPTIONAL)
    Contents: (OPTIONAL)

Version and Editions:
    Version: 2.0
    Edition/Release: LucasArts Classics

Extras:
    Primary Volume Descriptor (PVD):

0320 : 20 20 20 20 20 20 20 20  20 20 20 20 20 31 39 39                199
0330 : 37 30 38 31 34 31 32 30  34 33 34 30 30 00 31 39   7081412043400.19
0340 : 39 37 30 38 31 34 31 32  30 34 33 34 30 30 00 30   97081412043400.0
0350 : 30 30 30 30 30 30 30 30  30 30 30 30 30 30 30 00   000000000000000.
0360 : 30 30 30 30 30 30 30 30  30 30 30 30 30 30 30 30   0000000000000000
0370 : 00 01 00 00 00 00 00 00  00 00 00 00 00 00 00 00   ................

Copy Protection:
    Copy Protection: 

Tracks and Write Offsets:
    DAT:

<rom name="OUTLAWS_2 (Track 1).bin" size="303424464" crc="75fcac7c" md5="2ee7f72ef300aec4ebcccdaec3d6d090" sha1="28d2426ab7eb211d0822fc8902c9d7cb70eaee4a" />
<rom name="OUTLAWS_2 (Track 2).bin" size="50083488" crc="dc022243" md5="fc65609a3619fd34daa8d245d1ac5844" sha1="cd7fed9662b17da774dd50a49647c103f0d06adf" />
<rom name="OUTLAWS_2 (Track 3).bin" size="59366832" crc="a55cce5b" md5="7a91ca37f3c9fb85bc52c1623a79fb69" sha1="fc8f33370fcf391ed03b277d1886302ae1f4d52a" />
<rom name="OUTLAWS_2 (Track 4).bin" size="36731184" crc="a9eac82d" md5="0f7970cd0e9e06b8fb27a01679b04f2a" sha1="7007d9d86942bd5a22aad924cecf982eb4bbc793" />
<rom name="OUTLAWS_2 (Track 5).bin" size="76973904" crc="5af88d6d" md5="b1c66652d5f21a9c3f5b3bb4b6e9e85c" sha1="0f57c2b381d5bedde2c64a08b81d33fe616f3aaa" />
<rom name="OUTLAWS_2 (Track 6).bin" size="43323840" crc="30f80331" md5="4369d6e3c554c4b1494cd00eebf139d6" sha1="748e715499bb14131992a900c648419f9f0002f9" />
<rom name="OUTLAWS_2 (Track 7).bin" size="55413120" crc="e83e1c89" md5="6d0af712b0e599a1bb61d91d7bf77557" sha1="439993128b7a3304bf52ee76de0b6a78bed71583" />
<rom name="OUTLAWS_2 (Track 8).bin" size="39457152" crc="9b39850b" md5="0748bfe4a6d664d577c6389e2a5b932b" sha1="1d4eaa1699640eb8e247b76891ae57f70f675f30" />
<rom name="OUTLAWS_2 (Track 9).bin" size="25937856" crc="6ef0ba13" md5="c25ac71c16ea3e2e1dd7298e77e5e771" sha1="22f41450bdb03df057a59df502050f291e249614" />

    Cuesheet:

FILE "OUTLAWS_2 (Track 1).bin" BINARY
  TRACK 01 MODE1/2352
    INDEX 01 00:00:00
FILE "OUTLAWS_2 (Track 2).bin" BINARY
  TRACK 02 AUDIO
    INDEX 00 00:00:00
    INDEX 01 00:01:00
FILE "OUTLAWS_2 (Track 3).bin" BINARY
  TRACK 03 AUDIO
    INDEX 00 00:00:00
    INDEX 01 00:01:74
FILE "OUTLAWS_2 (Track 4).bin" BINARY
  TRACK 04 AUDIO
    INDEX 00 00:00:00
    INDEX 01 00:01:74
FILE "OUTLAWS_2 (Track 5).bin" BINARY
  TRACK 05 AUDIO
    INDEX 00 00:00:00
    INDEX 01 00:01:74
FILE "OUTLAWS_2 (Track 6).bin" BINARY
  TRACK 06 AUDIO
    INDEX 00 00:00:00
    INDEX 01 00:01:73
FILE "OUTLAWS_2 (Track 7).bin" BINARY
  TRACK 07 AUDIO
    INDEX 00 00:00:00
    INDEX 01 00:01:74
FILE "OUTLAWS_2 (Track 8).bin" BINARY
  TRACK 08 AUDIO
    INDEX 00 00:00:00
    INDEX 01 00:01:74
FILE "OUTLAWS_2 (Track 9).bin" BINARY
  TRACK 09 AUDIO
    INDEX 00 00:00:00
    INDEX 01 00:01:74

    Write Offset: -12