Dumped with dic and /ms hash match my previous set of them. 

Nine Chairs (1999)

Title: ナイン・チェアーズ~09 Chairs~
Disc Number / Letter: (OPTIONAL)
Disc Title: (OPTIONAL)
System: Sega Dreamcast
Media Type: CD-ROM / MIL-CD
Category: MIL-CD
Region: Japan/World
Languages: English/Japanese
Disc Serial: SCLX2004
Ringcode Information:
    Mastering Code (laser branded/etched): PRT-8848 1M2 C 96
    Mastering SID Code: IFPI L223
    Data-Side Mould SID Code: UFPI 3938
    Label-Side Mould SID Code: (REQUIRED, IF EXISTS)
    Additional Mould: (REQUIRED, IF EXISTS)
    Toolstamp or Mastering Code (engraved/stamped): (REQUIRED, IF EXISTS)
Barcode: 4537649020046
Error Count: 0
Comments: (OPTIONAL)
Contents: 11 songs. mil-cd content is 2 movies
Version: (REQUIRED, IF EXISTS)
Edition/Release: Original (VERIFY THIS)
Primary Volume Descriptor (PVD):

Disc has no PVD
DAT:

<rom name="09chairs (Track 01).bin" size="34285104" crc="8951f196" md5="0d9fcf3e5aa8844db7be1534ee1aede8" sha1="c12959728d7ffdb9f71e755dda29544d7a5ce3b1" />
<rom name="09chairs (Track 02).bin" size="54197136" crc="d15eb891" md5="c059dc1d7463ede81f998edf02e5d3d7" sha1="84f6283920dd447ca44b8817d6ebcff2d955a69e" />
<rom name="09chairs (Track 03).bin" size="43434384" crc="c0974479" md5="743ed84947c92aa17796100c3ea9c0eb" sha1="b25a000421090e6ff53d8a741f726afd8b631e07" />
<rom name="09chairs (Track 04).bin" size="56471520" crc="fc496df6" md5="94c81dc5ba7f50f8cee21b64e6e76cf9" sha1="3e9ddb0e6d059512277031ae0cc4fa3c52457047" />
<rom name="09chairs (Track 05).bin" size="53820816" crc="41589c1b" md5="de647c4f31431ff499f450d1df5bf674" sha1="e791ec3a447b2e22e8e33a451913b1e5430aefec" />
<rom name="09chairs (Track 06).bin" size="34198080" crc="f5eaad1e" md5="3c3f7c3014c816d5f06fa125c0559efa" sha1="1f4a77af649bc6776c760475de7ccc905594da7b" />
<rom name="09chairs (Track 07).bin" size="56130480" crc="cb40b2e8" md5="7257c0da74cc3c83f3f70469743da1cd" sha1="bf886b272513daeec6e643023a3408b3817d5ad2" />
<rom name="09chairs (Track 08).bin" size="46539024" crc="0e48384d" md5="f2278468ea75e61bfdef8d2a336da458" sha1="6a6ebdc45651232c94304ff93d772f57a3269e4e" />
<rom name="09chairs (Track 09).bin" size="10536960" crc="46155c75" md5="a682546c468130403651a786582ba362" sha1="21bc76ad5d71e829146c718ba593418da9c77668" />
<rom name="09chairs (Track 10).bin" size="39838176" crc="61e5f5b5" md5="6bdefa25fbff80a645dc239f2a82f3ad" sha1="d0af15a439c089b177cdb8401ba3eccacb01fe0d" />
<rom name="09chairs (Track 11).bin" size="47969040" crc="6811d6e9" md5="f619d1356035805350a24ce3a4120a17" sha1="66f3bec5a76ee9781c74383e4acba8b08a9e75a2" />
<rom name="09chairs (Track 12).bin" size="240040416" crc="ae2a3752" md5="c023bfa79709cf6112fe1d5db29f2fe2" sha1="ac512d27510dc889a195c8efb69d11abeb1505ba" />

Cuesheet:

CATALOG 4537649020046
REM SESSION 01
FILE "09chairs (Track 01).bin" BINARY
  TRACK 01 AUDIO
    INDEX 01 00:00:00
FILE "09chairs (Track 02).bin" BINARY
  TRACK 02 AUDIO
    INDEX 00 00:00:00
    INDEX 01 00:00:10
FILE "09chairs (Track 03).bin" BINARY
  TRACK 03 AUDIO
    INDEX 00 00:00:00
    INDEX 01 00:01:02
FILE "09chairs (Track 04).bin" BINARY
  TRACK 04 AUDIO
    INDEX 01 00:00:00
FILE "09chairs (Track 05).bin" BINARY
  TRACK 05 AUDIO
    INDEX 00 00:00:00
    INDEX 01 00:02:00
FILE "09chairs (Track 06).bin" BINARY
  TRACK 06 AUDIO
    INDEX 00 00:00:00
    INDEX 01 00:00:52
FILE "09chairs (Track 07).bin" BINARY
  TRACK 07 AUDIO
    INDEX 01 00:00:00
FILE "09chairs (Track 08).bin" BINARY
  TRACK 08 AUDIO
    INDEX 00 00:00:00
    INDEX 01 00:01:45
FILE "09chairs (Track 09).bin" BINARY
  TRACK 09 AUDIO
    INDEX 00 00:00:00
    INDEX 01 00:01:40
FILE "09chairs (Track 10).bin" BINARY
  TRACK 10 AUDIO
    INDEX 01 00:00:00
FILE "09chairs (Track 11).bin" BINARY
  TRACK 11 AUDIO
    INDEX 00 00:00:00
    INDEX 01 00:00:20
REM LEAD-OUT 01:30:00
REM SESSION 02
REM LEAD-IN 01:00:01
REM PREGAP 00:01:74
FILE "09chairs (Track 12).bin" BINARY
  TRACK 12 MODE2/2352
    INDEX 01 00:00:00


Write Offset: -12

https://www.mediafire.com/file/46bel9fz … rs.7z/file

Kita e. White Illumination Pure Song and Pictures (1999)

Title: 北へ。White Illumination PURE SONG and PICTURES
Disc Number / Letter: (OPTIONAL)
Disc Title: (OPTIONAL)
System: Sega Dreamcast
Media Type: CD-ROM / MIL-CD
Category: MIL-CD
Region: Japan/World
Languages: English/Japanese
Disc Serial:     ZMCZ-656
Ringcode Information:
    Mastering Code (laser branded/etched): MZCZ-0656 1 A5
    Mastering SID Code: IFPI L153
    Data-Side Mould SID Code: (REQUIRED, IF EXISTS)
    Label-Side Mould SID Code: (REQUIRED, IF EXISTS)
    Additional Mould: (REQUIRED, IF EXISTS)
    Toolstamp or Mastering Code (engraved/stamped): (REQUIRED, IF EXISTS)
Barcode: T4935228983438
Error Count: 0
Comments: (OPTIONAL)
Contents: 11 songs. mil-cd content is 2 movies
Version: (REQUIRED, IF EXISTS)
Edition/Release: Original (VERIFY THIS)
Primary Volume Descriptor (PVD):

Disc has no PVD
DAT:

<rom name="KITAHE_WHITE_ILLUMINATION (Track 01).bin" size="41023584" crc="aa5509a1" md5="a31c3366847c78661ef615646f730cf9" sha1="756ccf2ce1381d4bbf0403826a8a2f236b1c0748" />
<rom name="KITAHE_WHITE_ILLUMINATION (Track 02).bin" size="43747200" crc="68b36599" md5="ffcfc34dfd8a04fd5cea1d7403a6767f" sha1="37d572555d29b6107c9342798983a8997ca39d5d" />
<rom name="KITAHE_WHITE_ILLUMINATION (Track 03).bin" size="49410816" crc="487b1f6b" md5="cd4bd1e8d916be2a98b55cf6fb77face" sha1="99f2b9b0ea328163677089c91fb2d6bdbe61a355" />
<rom name="KITAHE_WHITE_ILLUMINATION (Track 04).bin" size="47950224" crc="61d8c330" md5="baa8aa67b3ec367334470b32565800c4" sha1="acdb80e9a3995d41b6cf6c56f2a7f4a259d2f21a" />
<rom name="KITAHE_WHITE_ILLUMINATION (Track 05).bin" size="30418416" crc="667c3fdd" md5="ee06101e3064bd1155b4407f98d8ec4d" sha1="114ba0a4319bd013592a4f56d52567938bbd207e" />
<rom name="KITAHE_WHITE_ILLUMINATION (Track 06).bin" size="52249680" crc="ccffb387" md5="f8aaa3006e189eb9a14205f7f406d3a5" sha1="e22d5799032b80a0666675529a21b2a1dff0ff1e" />
<rom name="KITAHE_WHITE_ILLUMINATION (Track 07).bin" size="48561744" crc="34acb0af" md5="10245b7cd1eeb7e97a994bfd0a7fc921" sha1="9de09ae740b08cc7d20cf7baf28fa2122611b33a" />
<rom name="KITAHE_WHITE_ILLUMINATION (Track 08).bin" size="45118416" crc="40229a33" md5="a0ce56f2c02d007ae5df1f34e3cff5e2" sha1="219529e475b49a52c9333394f8e5533d82df8d62" />
<rom name="KITAHE_WHITE_ILLUMINATION (Track 09).bin" size="52355520" crc="8412a01d" md5="05fe1c8e85e35c6cbc1e8a408e1fa8ed" sha1="7c3062cb7287f8242504df58641d2c1f3c998f5b" />
<rom name="KITAHE_WHITE_ILLUMINATION (Track 10).bin" size="55072080" crc="ccac4be1" md5="715bbbcb9ecfe05f8b08be1972986af5" sha1="302bdccf8aa241e025ac98a3d414dd2ef650fdbb" />
<rom name="KITAHE_WHITE_ILLUMINATION (Track 11).bin" size="44417520" crc="ea573dda" md5="9933582d178ea335c682280a2d9c7b8d" sha1="76ea086e97b99249fe47e338ebd24a91d256626e" />
<rom name="KITAHE_WHITE_ILLUMINATION (Track 12).bin" size="114779952" crc="d963a4e4" md5="e1f0753b239d6787ae59ade3eeccb34c" sha1="63267c8e1bbbd6136a76019b4e86debb6a8ef884" />

Cuesheet:

REM SESSION 01
FILE "KITAHE_WHITE_ILLUMINATION (Track 01).bin" BINARY
  TRACK 01 AUDIO
    INDEX 01 00:00:00
FILE "KITAHE_WHITE_ILLUMINATION (Track 02).bin" BINARY
  TRACK 02 AUDIO
    INDEX 00 00:00:00
    INDEX 01 00:02:33
FILE "KITAHE_WHITE_ILLUMINATION (Track 03).bin" BINARY
  TRACK 03 AUDIO
    INDEX 00 00:00:00
    INDEX 01 00:02:33
FILE "KITAHE_WHITE_ILLUMINATION (Track 04).bin" BINARY
  TRACK 04 AUDIO
    INDEX 00 00:00:00
    INDEX 01 00:02:25
FILE "KITAHE_WHITE_ILLUMINATION (Track 05).bin" BINARY
  TRACK 05 AUDIO
    INDEX 00 00:00:00
    INDEX 01 00:02:38
FILE "KITAHE_WHITE_ILLUMINATION (Track 06).bin" BINARY
  TRACK 06 AUDIO
    INDEX 00 00:00:00
    INDEX 01 00:02:42
FILE "KITAHE_WHITE_ILLUMINATION (Track 07).bin" BINARY
  TRACK 07 AUDIO
    INDEX 00 00:00:00
    INDEX 01 00:02:40
FILE "KITAHE_WHITE_ILLUMINATION (Track 08).bin" BINARY
  TRACK 08 AUDIO
    INDEX 00 00:00:00
    INDEX 01 00:03:43
FILE "KITAHE_WHITE_ILLUMINATION (Track 09).bin" BINARY
  TRACK 09 AUDIO
    INDEX 00 00:00:00
    INDEX 01 00:02:60
FILE "KITAHE_WHITE_ILLUMINATION (Track 10).bin" BINARY
  TRACK 10 AUDIO
    INDEX 00 00:00:00
    INDEX 01 00:03:00
FILE "KITAHE_WHITE_ILLUMINATION (Track 11).bin" BINARY
  TRACK 11 AUDIO
    INDEX 00 00:00:00
    INDEX 01 00:02:60
REM LEAD-OUT 01:30:00
REM SESSION 02
REM LEAD-IN 01:00:00
REM PREGAP 00:02:00
FILE "KITAHE_WHITE_ILLUMINATION (Track 12).bin" BINARY
  TRACK 12 MODE2/2352
    INDEX 01 00:00:00



Write Offset: -12

https://www.mediafire.com/file/auv127r4 … ON.7z/file

Heartbreak Diary (1999)

Title: Heartbreak Diary
Disc Number / Letter: (OPTIONAL)
Disc Title: (OPTIONAL)
System: Sega Dreamcast
Media Type: CD-ROM / MIL-CD
Category: MIL-CD
Region: Japan/World
Languages: English/Japanese
Disc Serial: PICL-7501
Ringcode Information:
    Mastering Code (laser branded/etched):  P04
    Mastering SID Code: IFPI L715
    Data-Side Mould SID Code: IFPI 1820
    Label-Side Mould SID Code: (REQUIRED, IF EXISTS)
    Additional Mould: (REQUIRED, IF EXISTS)
    Toolstamp or Mastering Code (engraved/stamped): (REQUIRED, IF EXISTS)
Barcode:4988102183059
Error Count: 1
Comments: (OPTIONAL)
Contents: 4 songs. Mil-CD content is 1 video
Version: (REQUIRED, IF EXISTS)
Edition/Release: Original (VERIFY THIS)
Primary Volume Descriptor (PVD):

Disc has no PVD
DAT:

<rom name="HEARTBREAK_DIARY (Track 1).bin" size="41454000" crc="cdfa29b8" md5="f76a11a47338df208f92fb16d3caecdf" sha1="acd07c79d954774d30645172ddec022d0e00001f" />
<rom name="HEARTBREAK_DIARY (Track 2).bin" size="52155600" crc="c02da0c7" md5="bd100f32eb41eff91a7d59d4774b2119" sha1="90a8b0d8f3b20de9e9dd951dbc028e353cd9f15f" />
<rom name="HEARTBREAK_DIARY (Track 3).bin" size="42375984" crc="366d7556" md5="176657eea8c3fa969b379cc01d9509ed" sha1="457bba88a07136e6f646f8aacb43b300d0657d66" />
<rom name="HEARTBREAK_DIARY (Track 4).bin" size="52176768" crc="3443cd7d" md5="e177c5d9f6321a3acdd7c16452065772" sha1="69a50459c1a1cc7ed372f8685081142e652dcb34" />
<rom name="HEARTBREAK_DIARY (Track 5).bin" size="219556848" crc="b4b35a14" md5="3344da64fbab74d282e304e5d36eea3b" sha1="a28bb2bd18d2c3ad55f8d6abf52c92990caca860" />

Cuesheet:

CATALOG 4988102183059
REM SESSION 01
FILE "HEARTBREAK_DIARY (Track 1).bin" BINARY
  TRACK 01 AUDIO
    ISRC JPPI09902380
    INDEX 01 00:00:00
FILE "HEARTBREAK_DIARY (Track 2).bin" BINARY
  TRACK 02 AUDIO
    ISRC JPPI09902390
    INDEX 00 00:00:00
    INDEX 01 00:02:00
FILE "HEARTBREAK_DIARY (Track 3).bin" BINARY
  TRACK 03 AUDIO
    ISRC JPPI09902389
    INDEX 00 00:00:00
    INDEX 01 00:04:25
FILE "HEARTBREAK_DIARY (Track 4).bin" BINARY
  TRACK 04 AUDIO
    ISRC JPPI09902399
    INDEX 00 00:00:00
    INDEX 01 00:02:08
REM LEAD-OUT 00:00:00
REM SESSION 02
REM LEAD-IN 00:00:00
REM PREGAP 00:00:00
FILE "HEARTBREAK_DIARY (Track 5).bin" BINARY
  TRACK 05 AUDIO
    INDEX 01 00:00:00

Write Offset: 888

https://www.mediafire.com/file/sjkn64k8 … RY.7z/file

Checkicco no Miru CD (1999)

Title: チェキっ娘の見るCD
Disc Number / Letter: (OPTIONAL)
Disc Title: (OPTIONAL)
System: Sega Dreamcast
Media Type: CD-ROM / MIL-CD
Category: MIL-CD
Region: Japan/World
Languages: English/Japanese
Disc Serial: PCCAX-10001
Ringcode Information:
    Mastering Code (laser branded/etched): PCCAX-10001 MT B01
    Mastering SID Code: IFPI L262
    Data-Side Mould SID Code: IFPI 4429
    Label-Side Mould SID Code: (REQUIRED, IF EXISTS)
    Additional Mould: (REQUIRED, IF EXISTS)
    Toolstamp or Mastering Code (engraved/stamped): (REQUIRED, IF EXISTS)
Barcode: 4988013013407
Error Count: 0
Comments: Not for Sale
Contents: 4 songs and Mil-CD content is a lot of short videos
Version: (REQUIRED, IF EXISTS)
Edition/Release: Original (VERIFY THIS)
Primary Volume Descriptor (PVD):

Disc has no PVD
DAT:

<rom name="checkicco (Track 1).bin" sha1="eb786685eff908f0c874af092eeb8cb27217ab0b" md5="72cb7b7a5acac9b3221be1e11dc714b9" crc="4ae17aa6" size="52948224"/>
<rom name="checkicco (Track 2).bin" sha1="b87f685c688af50cff7649d9f623a3cb9a96eb6e" md5="b7d417ce09ca01008cc7934c9a8b010e" crc="9d372743" size="43606080"/>
<rom name="checkicco (Track 3).bin" sha1="046f472a2a66e52b8f5f64c866ee0e65d1079ed2" md5="dd6c4b9a9202636908533f5e53ad2793" crc="77c3a616" size="48458256"/>
<rom name="checkicco (Track 4).bin" sha1="44b80c57d47d62e8635ad511dd88140ff8a920bf" md5="fe91819ae9974f4aab494550a4ccd501" crc="1a6bee30" size="44081184"/>
<rom name="checkicco (Track 5).bin" sha1="65b494cfc6d57f02912cedeb4c48cb888b4d71a3" md5="fe2a69ca6a38e70c2d7438a898b400be" crc="27653c3" size="539111328"/>

Cuesheet:

CATALOG 4988013013407
REM SESSION 01
FILE "checkicco (Track 1).bin" BINARY
  TRACK 01 AUDIO
    ISRC JPPC09802606
    INDEX 01 00:00:00
FILE "checkicco (Track 2).bin" BINARY
  TRACK 02 AUDIO
    ISRC JPPC09900097
    INDEX 00 00:00:00
    INDEX 01 00:02:38
FILE "checkicco (Track 3).bin" BINARY
  TRACK 03 AUDIO
    ISRC JPPC09900700
    INDEX 00 00:00:00
    INDEX 01 00:02:13
FILE "checkicco (Track 4).bin" BINARY
  TRACK 04 AUDIO
    ISRC JPPC09901110
    INDEX 00 00:00:00
    INDEX 01 00:03:10
REM LEAD-OUT 01:30:00
REM SESSION 02
REM LEAD-IN 01:00:00
REM PREGAP 00:02:00
FILE "checkicco (Track 5).bin" BINARY
  TRACK 05 MODE2/2352
    INDEX 01 00:00:00



Write Offset: -12

https://www.mediafire.com/file/3kux0p7z … co.7z/file

Himitsu Original Sound Track (1999)

Title: 「秘密」オリジナルサウンドトラック
Disc Number / Letter: (OPTIONAL)
Disc Title: (OPTIONAL)
System: Sega Dreamcast
Media Type: CD-ROM / MIL-CD
Category: MIL-CD
Region: Japan/World
Languages: English/Japanese
Disc Serial: WPCV-10045
Ringcode Information:
    Mastering Code (laser branded/etched): WPCV-10045 1
    Mastering SID Code: IFPI L275
    Data-Side Mould SID Code: IFPI 457F
    Label-Side Mould SID Code: (REQUIRED, IF EXISTS)
    Additional Mould: (REQUIRED, IF EXISTS)
    Toolstamp or Mastering Code (engraved/stamped): (REQUIRED, IF EXISTS)
Barcode: 4943674011599
Error Count: 0
Comments: Not for Sale
Contents: 14 Songs and Mil-CD content is 2 videos
Version: (REQUIRED, IF EXISTS)
Edition/Release: Original (VERIFY THIS)
Primary Volume Descriptor (PVD):

Disc has no PVD
DAT:

<rom name="EIGA_HIMITSU_SOUNDTRACK (Track 01).bin" sha1="ebf4fa69538faad12b7f9d5644ea3938a5469bf7" md5="3d59ca753ea554d4c60ebe8839d12fc3" crc="512ea332" size="38036544"/>
<rom name="EIGA_HIMITSU_SOUNDTRACK (Track 02).bin" sha1="4dae8e245bf95e2c1b6125cef239d62ad403a770" md5="170936a8af9cca9b14eca855a516f1f2" crc="ab38cb29" size="32946816"/>
<rom name="EIGA_HIMITSU_SOUNDTRACK (Track 03).bin" sha1="147d1f05df9770fb06e347e56e42f2b5ec409172" md5="d7a3d606b60917c9eccd5f1c6e641891" crc="b4ac372e" size="20761104"/>
<rom name="EIGA_HIMITSU_SOUNDTRACK (Track 04).bin" sha1="986c7c713275f05908c13da691bc71047b0594f7" md5="4f6801de521b921d07b23f7b7190d53f" crc="c1de982d" size="29465856"/>
<rom name="EIGA_HIMITSU_SOUNDTRACK (Track 05).bin" sha1="455ca2601513573691ac5a4bb390ddcbb6e25cc4" md5="25ef50b8efe627ee17815b7d95dd3394" crc="7a5c254" size="29628144"/>
<rom name="EIGA_HIMITSU_SOUNDTRACK (Track 06).bin" sha1="a1ecbdc05ca48a436003cdf960db95e55e316d98" md5="703b5b8cf9c66a14f896db8df550e973" crc="a9b4c110" size="33069120"/>
<rom name="EIGA_HIMITSU_SOUNDTRACK (Track 07).bin" sha1="01d03a5d347111a63b93a5440c89ab63708f030b" md5="d15d1f8939991c455d7600f53e79145f" crc="bede3c08" size="50375136"/>
<rom name="EIGA_HIMITSU_SOUNDTRACK (Track 08).bin" sha1="4060d2d44d61b790a9046a158463827269ef33d0" md5="b28415d9e35e87cc6afdc8d64e1683c6" crc="7e3aab09" size="26452944"/>
<rom name="EIGA_HIMITSU_SOUNDTRACK (Track 09).bin" sha1="7b0df97cb421cb261d4f066c30fce4721ed6c361" md5="65126c28adec621ff2a2c9861ab52446" crc="177687b3" size="30964080"/>
<rom name="EIGA_HIMITSU_SOUNDTRACK (Track 10).bin" sha1="a5a4e963a57a83b8582c312d9cca68035454286e" md5="3685e882825c1751a308b3d41db120a3" crc="b09c9e23" size="24220896"/>
<rom name="EIGA_HIMITSU_SOUNDTRACK (Track 11).bin" sha1="42e255eccf3e0ea081206ca32b4861ecbe5ffaa0" md5="f0a6af25b42016861ced6ee4449a4dac" crc="7b8319a7" size="24343200"/>
<rom name="EIGA_HIMITSU_SOUNDTRACK (Track 12).bin" sha1="4ae91d3562f652b86e002619886414780432aed0" md5="f4b1dae9a86ded18809ec61435feb1cf" crc="8c4fcf8d" size="25323984"/>
<rom name="EIGA_HIMITSU_SOUNDTRACK (Track 13).bin" sha1="7ee0c868accd36ba72f9ab97f6d128502f7c4600" md5="329ed2c9ef53b77a3952de0355f22815" crc="14dd072a" size="31453296"/>
<rom name="EIGA_HIMITSU_SOUNDTRACK (Track 14).bin" sha1="492479e78f739c69e7e24113be8867c0bee9f9e0" md5="82045d807cded8a67174c29b6d9c0c42" crc="204ed9a8" size="37236864"/>
<rom name="EIGA_HIMITSU_SOUNDTRACK (Track 15).bin" sha1="0a0bb72d068616921eb4cfef0be4f9364342385f" md5="a6875685ba2bd693b6167e876f8059a8" crc="6d5ab10d" size="273965664"/>

Cuesheet:

CATALOG 4943674011599
REM SESSION 01
FILE "EIGA_HIMITSU_SOUNDTRACK (Track 01).bin" BINARY
  TRACK 01 AUDIO
    ISRC JPWP09906010
    INDEX 01 00:00:00
FILE "EIGA_HIMITSU_SOUNDTRACK (Track 02).bin" BINARY
  TRACK 02 AUDIO
    ISRC JPWP09906020
    INDEX 01 00:00:00
FILE "EIGA_HIMITSU_SOUNDTRACK (Track 03).bin" BINARY
  TRACK 03 AUDIO
    ISRC JPWP09906030
    INDEX 01 00:00:00
FILE "EIGA_HIMITSU_SOUNDTRACK (Track 04).bin" BINARY
  TRACK 04 AUDIO
    ISRC JPWP09906040
    INDEX 00 00:00:00
    INDEX 01 00:01:48
FILE "EIGA_HIMITSU_SOUNDTRACK (Track 05).bin" BINARY
  TRACK 05 AUDIO
    ISRC JPWP09906050
    INDEX 00 00:00:00
    INDEX 01 00:01:07
FILE "EIGA_HIMITSU_SOUNDTRACK (Track 06).bin" BINARY
  TRACK 06 AUDIO
    ISRC JPWP09906060
    INDEX 00 00:00:00
    INDEX 01 00:00:55
FILE "EIGA_HIMITSU_SOUNDTRACK (Track 07).bin" BINARY
  TRACK 07 AUDIO
    ISRC JPWP09906070
    INDEX 00 00:00:00
    INDEX 01 00:01:25
FILE "EIGA_HIMITSU_SOUNDTRACK (Track 08).bin" BINARY
  TRACK 08 AUDIO
    ISRC JPWP09906080
    INDEX 01 00:00:00
FILE "EIGA_HIMITSU_SOUNDTRACK (Track 09).bin" BINARY
  TRACK 09 AUDIO
    ISRC JPWP09906090
    INDEX 00 00:00:00
    INDEX 01 00:00:55
FILE "EIGA_HIMITSU_SOUNDTRACK (Track 10).bin" BINARY
  TRACK 10 AUDIO
    ISRC JPWP09906100
    INDEX 00 00:00:00
    INDEX 01 00:01:05
FILE "EIGA_HIMITSU_SOUNDTRACK (Track 11).bin" BINARY
  TRACK 11 AUDIO
    ISRC JPWP09906110
    INDEX 00 00:00:00
    INDEX 01 00:01:30
FILE "EIGA_HIMITSU_SOUNDTRACK (Track 12).bin" BINARY
  TRACK 12 AUDIO
    ISRC JPWP09906120
    INDEX 00 00:00:00
    INDEX 01 00:02:02
FILE "EIGA_HIMITSU_SOUNDTRACK (Track 13).bin" BINARY
  TRACK 13 AUDIO
    ISRC JPWP09906130
    INDEX 00 00:00:00
    INDEX 01 00:00:25
FILE "EIGA_HIMITSU_SOUNDTRACK (Track 14).bin" BINARY
  TRACK 14 AUDIO
    ISRC JPWP09906140
    INDEX 00 00:00:00
    INDEX 01 00:02:07
REM LEAD-OUT 01:30:00
REM SESSION 02
REM LEAD-IN 01:00:00
REM PREGAP 00:02:00
FILE "EIGA_HIMITSU_SOUNDTRACK (Track 15).bin" BINARY
  TRACK 15 MODE2/2352
    INDEX 01 00:00:00



Write Offset: -12

https://www.mediafire.com/file/gy3hd24n … su.7z/file

D2 Original Sound Track (1999)

Title: 北へ。White Illumination PURE SONG and PICTURES
Disc Number / Letter: (OPTIONAL)
Disc Title: (OPTIONAL)
System: Sega Dreamcast
Media Type: CD-ROM / MIL-CD
Category: MIL-CD
Region: Japan/World
Languages: English/Japanese
Disc Serial:     FSCA-10113
Ringcode Information:
    Mastering Code (laser branded/etched): FSCA-10113-2 MT B01
    Mastering SID Code: IFPI 4477
    Data-Side Mould SID Code: IFPI L262
    Label-Side Mould SID Code: (REQUIRED, IF EXISTS)
    Additional Mould: (REQUIRED, IF EXISTS)
    Toolstamp or Mastering Code (engraved/stamped): (REQUIRED, IF EXISTS)
Barcode: 4531924101130
Error Count: 0
Comments: (OPTIONAL)
Contents: 2 songs. mil-cd content is 2 movies
Version: (REQUIRED, IF EXISTS)
Edition/Release: Original (VERIFY THIS)
Primary Volume Descriptor (PVD):

Disc has no PVD
DAT:

<rom name="d2 (Track 1).bin" sha1="ed910d99f60958e6621f8d0469af89f9cdb39833" md5="342c768d50a5a56f3566def1d4e3ed00" crc="5659ddc1" size="76409424"/>
<rom name="d2 (Track 2).bin" sha1="63773d7173b945c672fd88c883fdcbe156d80dae" md5="d4cb2a467230f65063e49cb2f1dcbb46" crc="fc0ba605" size="40501440"/>
<rom name="d2 (Track 3).bin" sha1="8e52131e18d969db0d806f9ebb327e5d6adbce36" md5="6c699e52ca76d9301af4dac14af2c3aa" crc="e61fd962" size="573175344"/>

Cuesheet:

REM SESSION 01
FILE "d2 (Track 1).bin" BINARY
  TRACK 01 AUDIO
    INDEX 01 00:00:00
FILE "d2 (Track 2).bin" BINARY
  TRACK 02 AUDIO
    INDEX 00 00:00:00
    INDEX 01 00:02:45
REM LEAD-OUT 01:30:00
REM SESSION 02
REM LEAD-IN 01:00:00
REM PREGAP 00:02:00
FILE "d2 (Track 3).bin" BINARY
  TRACK 03 MODE2/2352
    INDEX 01 00:00:00

Write Offset: -12

https://www.mediafire.com/file/tmspwx4j … d2.7z/file

Space Channel 5 Ulala The Movie (1999)

Title: スペースチャンネル5 ULALA THE MOVIE
Disc Number / Letter: (OPTIONAL)
Disc Title: (OPTIONAL)
System: Sega Dreamcast
Media Type: CD-ROM / MIL-CD
Category: MIL-CD
Region: Japan/World
Languages: English/Japanese
Disc Serial: (REQUIRED, IF EXISTS)
Ringcode Information:
    Mastering Code (laser branded/etched): 610-7711 MT B01
    Mastering SID Code: IFPI L262
    Data-Side Mould SID Code: IFPI 4481
    Label-Side Mould SID Code: (REQUIRED, IF EXISTS)
    Additional Mould: (REQUIRED, IF EXISTS)
    Toolstamp or Mastering Code (engraved/stamped): (REQUIRED, IF EXISTS)
Barcode: (OPTIONAL)
Error Count: 0
Comments: Not for Sale
Contents: 1. Mexican Flyer (original) 2. mexican flyer remix. 3. mil-cd movie content
Version: (REQUIRED, IF EXISTS)
Edition/Release: Original (VERIFY THIS)
Primary Volume Descriptor (PVD):

Disc has no PVD
DAT:

<rom name="CHANNEL_5 (Track 1).bin" size="27711264" crc="a46ab03f" md5="199a52a4f6998af53f9ab4016e477cb7" sha1="03e9032326ebfe5c5d7189dee2def0892ef511dc" />
<rom name="CHANNEL_5 (Track 2).bin" size="62370336" crc="edd90d60" md5="23f5ae08c68c09fbde3124aca634adf5" sha1="0a9b8dd971b3bd1779c0c20839796009ce545bd3" />
<rom name="CHANNEL_5 (Track 3).bin" size="264524736" crc="98d638ac" md5="869753bdf5eb4661e82ab7ba65b874f8" sha1="647e73bcf27c2f83270c2e785178bd7ab2401925" />

Cuesheet:

REM SESSION 01
FILE "CHANNEL_5 (Track 1).bin" BINARY
  TRACK 01 AUDIO
    INDEX 01 00:00:00
FILE "CHANNEL_5 (Track 2).bin" BINARY
  TRACK 02 AUDIO
    INDEX 00 00:00:00
    INDEX 01 00:04:73
REM LEAD-OUT 01:30:00
REM SESSION 02
REM LEAD-IN 01:00:00
REM PREGAP 00:02:00
FILE "CHANNEL_5 (Track 3).bin" BINARY
  TRACK 03 MODE2/2352
    INDEX 01 00:00:00


Write Offset: -12

https://www.mediafire.com/file/yh6x6vwc … _5.7z/file


Disc & Cover Scans
https://www.mediafire.com/file/0l33g0k3 … an.7z/file

BUMP

Please add.

Nine Chairs (1999)
...
Data-Side Mould SID Code: UFPI 3938

IFPI? Or UFPI is correct?

REM LEAD-IN 01:00:01
REM PREGAP 00:01:74

LBA[214382, 0x3456e]: P[ff], Q[411200000003004740312a68]{ Data,      Copy NG,                  Track[12], Idx[00], RMSF[00:00:03], AMSF[47:40:31]}, RtoW[0, 0, 0, 0]
LBA[214383, 0x3456f]: P[ff], Q[41120000000200474032b05a]{ Data,      Copy NG,                  Track[12], Idx[00], RMSF[00:00:02], AMSF[47:40:32]}, RtoW[0, 0, 0, 0]
LBA[214384, 0x34570]: P[ff], Q[41120000000000474034941f]{ Data,      Copy NG,                  Track[12], Idx[00], RMSF[00:00:00], AMSF[47:40:34]}, RtoW[0, 0, 0, 0]
LBA[214385, 0x34571]: P[ff], Q[41120100000000474035c3ed]{ Data,      Copy NG,                  Track[12], Idx[01], RMSF[00:00:00], AMSF[47:40:35]}, RtoW[0, 0, 0, 0]

Dumping error?

4 (edited by mrneo240 2020-05-10 23:22:44)

F1ReB4LL wrote:

Nine Chairs (1999)
...
Data-Side Mould SID Code: UFPI 3938

IFPI? Or UFPI is correct?

REM LEAD-IN 01:00:01
REM PREGAP 00:01:74

LBA[214382, 0x3456e]: P[ff], Q[411200000003004740312a68]{ Data,      Copy NG,                  Track[12], Idx[00], RMSF[00:00:03], AMSF[47:40:31]}, RtoW[0, 0, 0, 0]
LBA[214383, 0x3456f]: P[ff], Q[41120000000200474032b05a]{ Data,      Copy NG,                  Track[12], Idx[00], RMSF[00:00:02], AMSF[47:40:32]}, RtoW[0, 0, 0, 0]
LBA[214384, 0x34570]: P[ff], Q[41120000000000474034941f]{ Data,      Copy NG,                  Track[12], Idx[00], RMSF[00:00:00], AMSF[47:40:34]}, RtoW[0, 0, 0, 0]
LBA[214385, 0x34571]: P[ff], Q[41120100000000474035c3ed]{ Data,      Copy NG,                  Track[12], Idx[01], RMSF[00:00:00], AMSF[47:40:35]}, RtoW[0, 0, 0, 0]

Dumping error?

I can double check for UFPI 3938, but it might be a typo based on the key layout. I and U are next to each other.

I'll need some help on what you mean by the dumping error question. I'm not super knowledgeable on using dic.

Edit: Yes IFPI 3938

edit:
```
20190820 170410
D:\Games\REDUMP\Release_ANSI\DiscImageCreator.exe cd g 09chairs\09chairs.bin 20 /c2 /ms
<rom name="09chairs (Track 12).bin" size="240040416" crc="ae2a3752" md5="c023bfa79709cf6112fe1d5db29f2fe2" sha1="ac512d27510dc889a195c8efb69d11abeb1505ba" />
```

```
20190621 223327
D:\Games\REDUMP\Release_ANSI\Debug\Programs\DiscImageCreator.exe cd F ISO\09CHAIRES\09CHAIRES.bin 20 /c2 20
<rom name="09CHAIRES (Track 12).bin" size="240040416" crc="41886e5a" md5="2e9a22bc9801684be1e64c134403fe77" sha1="f7e6ccdc64664efd119bbc858081e1fb529ce138" />```

Bump big_smile

http://redump.org/disc/70112/ - was it redumped or why was the entry changed?

mrneo240 wrote:

Title: スペースチャンネル5 ULALA THE MOVIE

You haven't provided any photos/scans, where does it say "ulala the movie"? Couldn't find any images of that.

F1ReB4LL wrote:

http://redump.org/disc/70112/ - was it redumped or why was the entry changed?

mrneo240 wrote:

Title: スペースチャンネル5 ULALA THE MOVIE

You haven't provided any photos/scans, where does it say "ulala the movie"? Couldn't find any images of that.

Ulala the Movie is wrong title for this one. It is nowhere to be seen and I think it's just a colloquial name. Seen many sources refer to it with this name, but ZERO evidence of it on the actual item. Will send you photo proof.
My personal opinion based on what can be seen on covers is that best possible title is "Space Channel 5 Theme Music : Mexican Flyer".