Match: http://redump.org/disc/31630/
Logs: https://drive.google.com/open?id=1k_lC5 … 7Ys3hKfdPq

Common Disc Info:
    Title: Tomb Raider
    Foreign Title (Non-latin): 
    Disc Number / Letter: (OPTIONAL)
    Disc Title: (OPTIONAL)
    System: IBM PC Compatible
    Media Type: CD-ROM
    Category: Games
    Matching IDs: 31630
    Region: Europe
    Languages: English
    Disc Serial: (REQUIRED, IF EXISTS)

    Ringcode Information:
        Mastering Code (laser branded/etched): 00163    TOMBRENG DXPE
        Mastering SID Code: IFPI L041
        Data-Side Mould SID Code: (REQUIRED, IF EXISTS)
        Label-Side Mould SID Code: (REQUIRED, IF EXISTS)
        Additional Mould: (REQUIRED, IF EXISTS)
        Toolstamp or Mastering Code (engraved/stamped): (REQUIRED, IF EXISTS)
    Barcode: 5 032921 000048 >
    Error Count: 0
    Comments: [T:ISBN] (OPTIONAL)
    Contents: (OPTIONAL)

Version and Editions:
    Version: (REQUIRED, IF EXISTS)
    Edition/Release: Original

Extras:
    Primary Volume Descriptor (PVD):

0320 : 20 20 20 20 20 20 20 20  20 20 20 20 20 31 39 39                199
0330 : 36 31 30 33 31 31 39 31  33 31 33 30 30 00 31 39   6103119131300.19
0340 : 39 36 31 30 33 31 31 39  31 33 31 33 30 30 00 30   96103119131300.0
0350 : 30 30 30 30 30 30 30 30  30 30 30 30 30 30 30 00   000000000000000.
0360 : 30 30 30 30 30 30 30 30  30 30 30 30 30 30 30 30   0000000000000000
0370 : 00 01 00 00 00 00 00 00  00 00 00 00 00 00 00 00   ................

Copy Protection:
    Copy Protection: None found

Tracks and Write Offsets:
    DAT:

<rom name="TOMBENG (Track 01).bin" size="204936816" crc="7ab31df8" md5="0c8303a0a7d20c084764d76898334943" sha1="c180757575be22545917bcf7d59bf740af59b72d" />
<rom name="TOMBENG (Track 02).bin" size="34680240" crc="ce09bf7c" md5="4a7697f9171750b841e3dbbadc848025" sha1="2f6d375b792fdfc05393d42648772952131bdf0b" />
<rom name="TOMBENG (Track 03).bin" size="21198576" crc="58a938d3" md5="b080544dbeb7508b3811e3242ee7f19c" sha1="532b366e99e3c26a3ae1a02c60129721f7a01795" />
<rom name="TOMBENG (Track 04).bin" size="32302368" crc="509bb0c1" md5="d03eee57e2efbdbc367480d9dc9ca345" sha1="4c82dbcf6a4dca16d9b8283dd265f182bd7c17a3" />
<rom name="TOMBENG (Track 05).bin" size="33299616" crc="03faacce" md5="a33b922dfc6da7b7ed2ebe4c975eac94" sha1="78905cd00a7bcd99703644882701fcd00eae3abd" />
<rom name="TOMBENG (Track 06).bin" size="33097344" crc="e5355024" md5="97663e311406d591dadde1b0a5d93f70" sha1="b7edc5c25b74538a8088020787d3b6b51ec3b209" />
<rom name="TOMBENG (Track 07).bin" size="11207280" crc="42ca98c4" md5="44ca12c6752c5e8f4ec0c340f0a1a0f4" sha1="41fb3e0b10d93ab9601ebdb11f875f4d7beacfc8" />
<rom name="TOMBENG (Track 08).bin" size="10162992" crc="5efb004a" md5="deccce29de1196ada95520f16b372f64" sha1="29c7929b8686961e8904415f5672ed968aa88196" />
<rom name="TOMBENG (Track 09).bin" size="2716560" crc="5b0b48db" md5="780e2a07cab8c81297a50d3dc6a74355" sha1="6d4ef766a5d856525e41e77dfc636d61df678af3" />
<rom name="TOMBENG (Track 10).bin" size="6503280" crc="06b10827" md5="ccb709f9842549099923a6d6f74bbf96" sha1="759676bac1672023ec5816645051b78999d53687" />

    Cuesheet:

FILE "TOMBENG (Track 01).bin" BINARY
  TRACK 01 MODE1/2352
    INDEX 01 00:00:00
FILE "TOMBENG (Track 02).bin" BINARY
  TRACK 02 AUDIO
    INDEX 00 00:00:00
    INDEX 01 00:02:00
FILE "TOMBENG (Track 03).bin" BINARY
  TRACK 03 AUDIO
    INDEX 00 00:00:00
    INDEX 01 00:02:00
FILE "TOMBENG (Track 04).bin" BINARY
  TRACK 04 AUDIO
    INDEX 00 00:00:00
    INDEX 01 00:02:00
FILE "TOMBENG (Track 05).bin" BINARY
  TRACK 05 AUDIO
    INDEX 00 00:00:00
    INDEX 01 00:02:00
FILE "TOMBENG (Track 06).bin" BINARY
  TRACK 06 AUDIO
    INDEX 00 00:00:00
    INDEX 01 00:02:00
FILE "TOMBENG (Track 07).bin" BINARY
  TRACK 07 AUDIO
    INDEX 00 00:00:00
    INDEX 01 00:02:00
FILE "TOMBENG (Track 08).bin" BINARY
  TRACK 08 AUDIO
    INDEX 00 00:00:00
    INDEX 01 00:02:00
FILE "TOMBENG (Track 09).bin" BINARY
  TRACK 09 AUDIO
    INDEX 00 00:00:00
    INDEX 01 00:02:00
FILE "TOMBENG (Track 10).bin" BINARY
  TRACK 10 AUDIO
    INDEX 00 00:00:00
    INDEX 01 00:02:00

    Write Offset: -22