Title: GDL-0021 - SHIKIGAMI 2
    Foreign Title (Non-latin): (OPTIONAL)
    Disc Number / Letter: (OPTIONAL)
    Disc Title: (OPTIONAL)
    System: Sega Naomi
    Media Type: GD-ROM
    Category: Games
    Region: J
    Languages: J
    Disc Serial: GDL-0021

    Ringcode Information:
        Mastering Code (laser branded/etched): GDL-0021 2MS1 C 34
        Mastering SID Code: IFPI L223
        Data-Side Mould SID Code: IFPI 39B5
        Label-Side Mould SID Code: (REQUIRED, IF EXISTS)
        Additional Mould: (REQUIRED, IF EXISTS)
        Toolstamp or Mastering Code (engraved/stamped): (REQUIRED, IF EXISTS)
    Barcode: (OPTIONAL)
    EXE/Build Date: 2003-03-07
    Error Count: 0
    Comments: Needs the included "Key Chip" to run (317-5059-JPN).
    Contents: (OPTIONAL)

Version and Editions:
    Version: V1.000
    Edition/Release: Original

Extras:
    Primary Volume Descriptor (PVD):

0320 : 20 20 20 20 20 20 20 20  20 20 20 20 20 32 30 30                200
0330 : 33 30 33 30 37 31 34 33  38 33 39 30 30 24 32 30   3030714383900$20
0340 : 30 33 30 33 30 37 31 34  33 38 33 39 30 30 24 30   03030714383900$0
0350 : 30 30 30 30 30 30 30 30  30 30 30 30 30 30 30 00   000000000000000.
0360 : 30 30 30 30 30 30 30 30  30 30 30 30 30 30 30 30   0000000000000000
0370 : 00 01 00 00 00 00 00 00  00 00 00 00 00 00 00 00   ................

Tracks and Write Offsets:
    DAT:

<rom name="GDL-0021 - SHIKIGAMI 2 (Track 1).bin" size="1058400" crc="2b2a17ac" md5="21516b2b60e7f3ed990f61120fd0ead0" sha1="c06fe45db12d5d9bdeb4a39925a4483efcd1cf55" />
<rom name="GDL-0021 - SHIKIGAMI 2 (Track 2).bin" size="5369616" crc="5936f07d" md5="65a39e76e9315aeae5d2fc383b8b063d" sha1="c9148e24e4254818b5b193c00777a706458dad1d" />
<rom name="GDL-0021 - SHIKIGAMI 2 (Track 3).bin" size="1185760800" crc="0864fd75" md5="7c1531cec48ce07e68be3ea263834f59" sha1="73acba6719e5ec6d7c37678bb4735d1805c0960a" />

    Cuesheet:

FILE "GDL-0021 - SHIKIGAMI 2 (Track 1).bin" BINARY
  TRACK 01 MODE1/2352
    INDEX 01 00:00:00
FILE "GDL-0021 - SHIKIGAMI 2 (Track 2).bin" BINARY
  TRACK 02 AUDIO
    INDEX 00 00:00:00
    INDEX 01 00:02:00
FILE "GDL-0021 - SHIKIGAMI 2 (Track 3).bin" BINARY
  TRACK 03 MODE1/2352
    INDEX 01 00:00:00

    Write Offset: -126

Post's attachments

GDL-0021 - SHIKIGAMI 2.zip 110.96 kb, 2 downloads since 2019-11-24 

You don't have the permssions to download the attachments of this post.

MajorPBX wrote:

Mastering Code (laser branded/etched): GDL-0021<TAB>2MS1<TAB>C<TAB>34

03  Mode1   45000  549149  504150 ok (3603)