Common Disc Info:
    Title: Darius 2
    Foreign Title (Non-latin): ダライアスⅡ
    Disc Number / Letter: N/A
    Disc Title: N/A
    System: Sega Saturn
    Media Type: CD-ROM
    Category: Games
    Region: Japan
    Languages: Japanese
    Disc Serial: T-1104G

    Ringcode Information:
        Mastering Code (laser branded/etched): T-1104GP-00824    2MB1    C    64    5
        Mastering SID Code: IFPI L223
        Data-Side Mould SID Code: IFPI 3908
        Label-Side Mould SID Code: N/A
        Additional Mould: N/A
        Toolstamp or Mastering Code (engraved/stamped): N/A
    Barcode: T498861196011
    EXE/Build Date: 19960418
    Error Count: 0
    Comments: N/A
    Contents: N/A

Version and Editions:
    Version: V1.003
    Edition/Release: Original

Extras:
    Primary Volume Descriptor (PVD):

0320 : 20 20 20 20 20 20 20 20  20 20 20 20 20 31 39 39                199
0330 : 36 30 34 31 38 31 32 30  32 30 33 30 30 14 31 39   6041812020300.19
0340 : 39 36 30 34 31 38 31 32  30 32 30 33 30 30 14 30   96041812020300.0
0350 : 30 30 30 30 30 30 30 30  30 30 30 30 30 30 30 00   000000000000000.
0360 : 30 30 30 30 30 30 30 30  30 30 30 30 30 30 30 30   0000000000000000
0370 : 00 01 00 00 00 00 00 00  00 00 00 00 00 00 00 00   ................

    Header:

0000 : 53 45 47 41 20 53 45 47  41 53 41 54 55 52 4E 20   SEGA SEGASATURN
0010 : 53 45 47 41 20 54 50 20  54 2D 31 31 20 20 20 20   SEGA TP T-11   
0020 : 54 2D 31 31 30 34 47 20  20 20 56 31 2E 30 30 33   T-1104G   V1.003
0030 : 31 39 39 36 30 34 31 38  43 44 2D 31 2F 31 20 20   19960418CD-1/1 
0040 : 4A 54 20 20 20 20 20 20  20 20 20 20 20 20 20 20   JT             
0050 : 4A 20 20 20 20 20 20 20  20 20 20 20 20 20 20 20   J               
0060 : 44 41 52 49 55 53 32 20  20 20 20 20 20 20 20 20   DARIUS2         
0070 : 20 20 20 20 20 20 20 20  20 20 20 20 20 20 20 20                   
0080 : 20 20 20 20 20 20 20 20  20 20 20 20 20 20 20 20                   
0090 : 20 20 20 20 20 20 20 20  20 20 20 20 20 20 20 20                   
00A0 : 20 20 20 20 20 20 20 20  20 20 20 20 20 20 20 20                   
00B0 : 20 20 20 20 20 20 20 20  20 20 20 20 20 20 20 20                   
00C0 : 20 20 20 20 20 20 20 20  20 20 20 20 20 20 20 20                   
00D0 : 00 00 00 00 00 00 00 00  00 00 00 00 00 00 00 00   ................
00E0 : 00 00 18 00 00 00 00 00  00 00 00 00 00 00 00 00   ................
00F0 : 06 00 40 00 00 00 00 00  00 00 00 00 00 00 00 00   ..@.............

Tracks and Write Offsets:
    DAT:

<rom name="DARIUS2 (Track 01).bin" size="9161040" crc="a3ec1bb6" md5="560e36d43aefecaa17a65db99c0bd051" sha1="1b0f63f33735b82265ba4955a64df7e6afc7c157" />
<rom name="DARIUS2 (Track 02).bin" size="43853040" crc="18f5efa2" md5="802d231616a4d1a6759069799a675b2e" sha1="23d3cc5b3e8ddf9f9d7aa974683b90079ee428eb" />
<rom name="DARIUS2 (Track 03).bin" size="37791936" crc="41ff900e" md5="31f320df00dc04e444d3fb86b0204ef3" sha1="48f3892dc0db51177cdaeb41ba11e8ceaa27ec1f" />
<rom name="DARIUS2 (Track 04).bin" size="39243120" crc="ac61e703" md5="bde41a973b463432dc3a814ee71622c4" sha1="3d275a7a5964d9086090ff78a0171d60a36b5b37" />
<rom name="DARIUS2 (Track 05).bin" size="36905232" crc="06683f62" md5="c64f1b1b034f40375ef57af4e726632b" sha1="9415d12e98d1ce67302e53c5aad8baac302f1f2f" />
<rom name="DARIUS2 (Track 06).bin" size="40468512" crc="6fc2f3ed" md5="a24aff3bccbbec705310550122666311" sha1="018d0f0f044cdb628d1b2b051e9dd5a84f2c1c97" />
<rom name="DARIUS2 (Track 07).bin" size="38309376" crc="f5c3d272" md5="067c275eae1eeb3fd0dafa809a38283e" sha1="b37c731be0b3420388fb0b9ce54117d0a3050568" />
<rom name="DARIUS2 (Track 08).bin" size="37396800" crc="6050716e" md5="4adf5309f62a78f2899844c2cef8f4b9" sha1="598aafba079e70f8c061e0dd522dd203cfbcc18c" />
<rom name="DARIUS2 (Track 09).bin" size="58564800" crc="8b7d7c65" md5="081d59d1ab3d359511b3fd1e5260775c" sha1="0f154ad8f3b7b92b0d2a6a5a50676e3d29eb764f" />
<rom name="DARIUS2 (Track 10).bin" size="11491872" crc="b3c34dfa" md5="c6065a42293d2d86499711d2ff47afe9" sha1="bb79c01b44b37db001bbf026b7184419d3935bb9" />
<rom name="DARIUS2 (Track 11).bin" size="40786032" crc="7207715c" md5="eda4c57b9e5248a70de6a9a0f3b60432" sha1="77c99a81b1ed665af1bb6fac18133386e6a6b340" />
<rom name="DARIUS2 (Track 12).bin" size="40889520" crc="a97c779d" md5="f9557c65d4994b809966a30b5cd78d4e" sha1="f606f7bbdcc4d7da9f6b84ff65728e35f8d57f3b" />
<rom name="DARIUS2 (Track 13).bin" size="9758448" crc="1c140207" md5="15d4b11ea1faad8b835bf0e834426399" sha1="dd8115011b45649d5264f0b519c37d779e6a90e6" />
<rom name="DARIUS2 (Track 14).bin" size="4059552" crc="710a3868" md5="c47c844e1b62d0d69513debd1ac1b10c" sha1="efc0af183411e5307fdd7a9825b1f9ea06dc5517" />
<rom name="DARIUS2 (Track 15).bin" size="8387232" crc="a5f6168d" md5="9e24a3a959030f3c3fb02105b7d9a119" sha1="6b72d0d6b4080ef47021f1cee41629cb45fce703" />
<rom name="DARIUS2 (Track 16).bin" size="7999152" crc="d65268e0" md5="640f4db482b2e00d5bbc441a281f5c4d" sha1="275b526c7fa1a078747f3cd2edcecaaff6fa4ba1" />
<rom name="DARIUS2 (Track 17).bin" size="24583104" crc="7deb3b8e" md5="c1fb8584bb121117538895249e1c00c5" sha1="644ab3a7e48a0b4a0bfe0bb5e93e42f6fdc78812" />

    Cuesheet:

CATALOG 0000000000000
FILE "DARIUS2 (Track 01).bin" BINARY
  TRACK 01 MODE1/2352
    INDEX 01 00:00:00
FILE "DARIUS2 (Track 02).bin" BINARY
  TRACK 02 AUDIO
    INDEX 00 00:00:00
    INDEX 01 00:02:00
FILE "DARIUS2 (Track 03).bin" BINARY
  TRACK 03 AUDIO
    INDEX 00 00:00:00
    INDEX 01 00:02:00
FILE "DARIUS2 (Track 04).bin" BINARY
  TRACK 04 AUDIO
    INDEX 00 00:00:00
    INDEX 01 00:02:00
FILE "DARIUS2 (Track 05).bin" BINARY
  TRACK 05 AUDIO
    INDEX 00 00:00:00
    INDEX 01 00:02:00
FILE "DARIUS2 (Track 06).bin" BINARY
  TRACK 06 AUDIO
    INDEX 00 00:00:00
    INDEX 01 00:02:00
FILE "DARIUS2 (Track 07).bin" BINARY
  TRACK 07 AUDIO
    INDEX 00 00:00:00
    INDEX 01 00:02:00
FILE "DARIUS2 (Track 08).bin" BINARY
  TRACK 08 AUDIO
    INDEX 00 00:00:00
    INDEX 01 00:02:00
FILE "DARIUS2 (Track 09).bin" BINARY
  TRACK 09 AUDIO
    INDEX 00 00:00:00
    INDEX 01 00:02:00
FILE "DARIUS2 (Track 10).bin" BINARY
  TRACK 10 AUDIO
    INDEX 00 00:00:00
    INDEX 01 00:02:00
FILE "DARIUS2 (Track 11).bin" BINARY
  TRACK 11 AUDIO
    INDEX 00 00:00:00
    INDEX 01 00:02:00
FILE "DARIUS2 (Track 12).bin" BINARY
  TRACK 12 AUDIO
    INDEX 00 00:00:00
    INDEX 01 00:02:00
FILE "DARIUS2 (Track 13).bin" BINARY
  TRACK 13 AUDIO
    INDEX 00 00:00:00
    INDEX 01 00:02:00
FILE "DARIUS2 (Track 14).bin" BINARY
  TRACK 14 AUDIO
    INDEX 00 00:00:00
    INDEX 01 00:02:00
FILE "DARIUS2 (Track 15).bin" BINARY
  TRACK 15 AUDIO
    INDEX 00 00:00:00
    INDEX 01 00:02:00
FILE "DARIUS2 (Track 16).bin" BINARY
  TRACK 16 AUDIO
    INDEX 00 00:00:00
    INDEX 01 00:02:00
FILE "DARIUS2 (Track 17).bin" BINARY
  TRACK 17 AUDIO
    INDEX 00 00:00:00
    INDEX 01 00:02:00

    Write Offset: 0

http://redump.org/disc/34318/

Verification Data:
https://drive.google.com/file/d/1PIuXlr … sp=sharing

If you want to get a ton of dumps done and ready for upload, never batch dump without tagging. You will leave yourself with a myriad of untagged dumps and it will drive you nuts.