1 (edited by Gameboi64 2020-03-31 21:39:21)

Common Disc Info:
    Title: Rockman X3
    Foreign Title (Non-latin): ロックマンX3
    Disc Number / Letter: N/A
    Disc Title: N/A
    System: Sega Saturn
    Media Type: CD-ROM
    Category: Games
    Region: Japan
    Languages: Japanese
    Disc Serial: T-1210G

    Ringcode Information:
        Mastering Code (laser branded/etched): T-1210GP-00798    2M1    C    64
        Mastering SID Code: IFPI L223
        Data-Side Mould SID Code: IFPI 3911
        Label-Side Mould SID Code: N/A
        Additional Mould: N/A
        Toolstamp or Mastering Code (engraved/stamped): N/A
    Barcode: 4976219154550
    EXE/Build Date: 19960325
    Error Count: 0
    Comments: N/A
    Contents: N/A

Version and Editions:
    Version: V1.001
    Edition/Release: Original

Extras:
    Primary Volume Descriptor (PVD):

0320 : 20 20 20 20 20 20 20 20  20 20 20 20 20 31 39 39                199
0330 : 36 30 33 32 35 31 35 34  32 31 37 30 30 14 31 39   6032515421700.19
0340 : 39 36 30 33 32 35 31 35  34 32 31 37 30 30 14 30   96032515421700.0
0350 : 30 30 30 30 30 30 30 30  30 30 30 30 30 30 30 00   000000000000000.
0360 : 30 30 30 30 30 30 30 30  30 30 30 30 30 30 30 30   0000000000000000
0370 : 00 01 00 00 00 00 00 00  00 00 00 00 00 00 00 00   ................

    Header:

0000 : 53 45 47 41 20 53 45 47  41 53 41 54 55 52 4E 20   SEGA SEGASATURN
0010 : 53 45 47 41 20 54 50 20  54 2D 31 32 20 20 20 20   SEGA TP T-12   
0020 : 54 2D 31 32 31 30 47 20  20 20 56 31 2E 30 30 31   T-1210G   V1.001
0030 : 31 39 39 36 30 33 32 35  43 44 2D 31 2F 31 20 20   19960325CD-1/1 
0040 : 4A 20 20 20 20 20 20 20  20 20 20 20 20 20 20 20   J               
0050 : 4A 20 20 20 20 20 20 20  20 20 20 20 20 20 20 20   J               
0060 : 4A 3A 52 4F 43 4B 4D 41  4E 20 58 33 20 20 20 20   J:ROCKMAN X3   
0070 : 55 3A 4D 45 47 41 4D 41  4E 20 58 33 20 20 20 20   U:MEGAMAN X3   
0080 : 20 20 20 20 20 20 20 20  20 20 20 20 20 20 20 20                   
0090 : 20 20 20 20 20 20 20 20  20 20 20 20 20 20 20 20                   
00A0 : 20 20 20 20 20 20 20 20  20 20 20 20 20 20 20 20                   
00B0 : 20 20 20 20 20 20 20 20  20 20 20 20 20 20 20 20                   
00C0 : 20 20 20 20 20 20 20 20  20 20 20 20 20 20 20 20                   
00D0 : 00 00 00 00 00 00 00 00  00 00 00 00 00 00 00 00   ................
00E0 : 00 00 18 00 00 00 00 00  00 00 00 00 00 00 00 00   ................
00F0 : 06 01 00 00 00 00 00 00  00 00 00 00 00 00 00 00   ................

Tracks and Write Offsets:
    DAT:

<rom name="ROCKMAN_X3 (Track 01).bin" size="205106160" crc="8030be91" md5="47ec4d19ce8826ba541d29b4d031bebd" sha1="1ef3da9f377899ec9b5edab51c6150ddbe3909b0" />
<rom name="ROCKMAN_X3 (Track 02).bin" size="15520848" crc="d9ce55b1" md5="47b667fdb5320f65d99ab8a2ddabaa81" sha1="75049f3ba3c284a7446251dcd83e5700a37b2cab" />
<rom name="ROCKMAN_X3 (Track 03).bin" size="15582000" crc="119f7d14" md5="78df900beb812ae0a5bcf0c5f8db4dec" sha1="2f5a2fcd64eebba4d42845f1ec5d8a2ce9271d31" />
<rom name="ROCKMAN_X3 (Track 04).bin" size="2330832" crc="943e542a" md5="58e8ec895711a5e7e4e1fc26050a71f3" sha1="20dcd0e6e9b0b65283ae7b5ad7849ce9adb88224" />
<rom name="ROCKMAN_X3 (Track 05).bin" size="10621632" crc="239e9746" md5="a01cbad21303dc71753907d82d145cd1" sha1="578450ae8d717d6c2c4317a27f7617393805d20f" />
<rom name="ROCKMAN_X3 (Track 06).bin" size="1286544" crc="28917d6f" md5="f071a89afeb72f2f5c6c5ace5dd8f6cc" sha1="d088df588ab71f66b60d708f432d1061a9adc4d1" />
<rom name="ROCKMAN_X3 (Track 07).bin" size="15549072" crc="3c6d1144" md5="1d67f5526d154486794c8306bb74d249" sha1="142555a65bcd1e2c1be9df866d2968aacea39493" />
<rom name="ROCKMAN_X3 (Track 08).bin" size="15457344" crc="2f3b4dd6" md5="2454541c39b7bc4a43f256b6e5bd36d9" sha1="cef1b734643f781ba1c05b07b23320ed0f3cd4be" />
<rom name="ROCKMAN_X3 (Track 09).bin" size="15532608" crc="075b76a1" md5="978b1cdb6c9b1a3b7c465c7c08fb7aab" sha1="25052b9fac5fe8db251adc53eaeda3b89eaa7576" />
<rom name="ROCKMAN_X3 (Track 10).bin" size="15530256" crc="10521e8d" md5="bfd19834b3e92d17cbec54ad13228692" sha1="4ebb68c3e9c5e58a65fbd091f374a1fe984ded7f" />
<rom name="ROCKMAN_X3 (Track 11).bin" size="15464400" crc="13194c3f" md5="bb70f86cc19c0de442ff066fe903da86" sha1="d08d9a669cab86f71c568074dfba6ab972f3404b" />
<rom name="ROCKMAN_X3 (Track 12).bin" size="15438528" crc="4f5ec6ea" md5="19874946ea110e398db2428d23c0b644" sha1="4435ebd56bab101acec7694acc27b4172af08181" />
<rom name="ROCKMAN_X3 (Track 13).bin" size="15574944" crc="7e4ebf54" md5="ed688ce4165deb217c9ce2cfd364bc1c" sha1="d8ffc77ff4680b01e04b21995ae452f1d4d71ffe" />
<rom name="ROCKMAN_X3 (Track 14).bin" size="15525552" crc="6b70a57b" md5="ebefc334da1644ba31d765e044297eba" sha1="d093d1fcdca64495ffccb16cc4c9d347e5b8e0d1" />
<rom name="ROCKMAN_X3 (Track 15).bin" size="10781568" crc="bff12c9f" md5="850a10a69b2e5e70f0ce93f1c447984e" sha1="8caaf7ac787767eb7408a9f5ecc46d8fae0bbfd4" />
<rom name="ROCKMAN_X3 (Track 16).bin" size="15316224" crc="8ad4f3ab" md5="474d1e7be08f257275d7231fa030175c" sha1="c7d155f2d00e015205df1edda5ab7b161b0ea4d7" />
<rom name="ROCKMAN_X3 (Track 17).bin" size="15530256" crc="d943b1a7" md5="9700db36dc2c06be31adece11b4404a2" sha1="53bf999e7d5fc9eb0e47ad926510262401066717" />
<rom name="ROCKMAN_X3 (Track 18).bin" size="15551424" crc="0d512bbd" md5="2dafd079a22849fffa00f5b1175afeb5" sha1="31a3a00019711700664a18830a185b0ee5221ed1" />
<rom name="ROCKMAN_X3 (Track 19).bin" size="13253520" crc="e29667d5" md5="ff1f7508dad36b9e90a144a8255d60d9" sha1="067b71148bd2f0ac2d3a5e43fc11b207219e2a2a" />
<rom name="ROCKMAN_X3 (Track 20).bin" size="12954816" crc="27a59cc3" md5="9de0f11406f78fd2adfacd5a3eb8c465" sha1="6e94d2c98e91dfa1214df5a1473d5746192ecf46" />
<rom name="ROCKMAN_X3 (Track 21).bin" size="15492624" crc="45061691" md5="989dce6ff27d067a893792535e02295b" sha1="0ee295d75a10608fa1c1fee5f8bebb910ca17c80" />
<rom name="ROCKMAN_X3 (Track 22).bin" size="22047648" crc="788e90f7" md5="5b32789612118b1aeae339a1503ca256" sha1="bda06b806721956934f633f66d1dfdd76741bc8f" />
<rom name="ROCKMAN_X3 (Track 23).bin" size="12947760" crc="e26a5b56" md5="31bae446d8af53cd60bf7ba003a6e3ac" sha1="1473e639a2bf334cf78171861a06f643173d7c53" />
<rom name="ROCKMAN_X3 (Track 24).bin" size="15596112" crc="05518a10" md5="10b8440c72623b03783bb939f64f1fac" sha1="47e3688656c6a180d83ab2e78b8da6fbb043a287" />
<rom name="ROCKMAN_X3 (Track 25).bin" size="13359360" crc="76663336" md5="a745be6906769fe6161616aecf8a874e" sha1="a01177110f42b0c4d1b35da519b9933b11092f40" />
<rom name="ROCKMAN_X3 (Track 26).bin" size="12717264" crc="d8875d84" md5="de00b22ceab2d673bda8cbc556afe100" sha1="f6d3324b347df7840ed8b5cddb0e8b51cb2d50d9" />
<rom name="ROCKMAN_X3 (Track 27).bin" size="3429216" crc="e654915b" md5="57663b33174c66c9f6efd29154d0b1a3" sha1="487ec2f5f201d03d166bdf3af30c32680890ccfa" />
<rom name="ROCKMAN_X3 (Track 28).bin" size="13147680" crc="4fd87e61" md5="48bd871b16be84a98ae98ff4d26e90df" sha1="c1460b11c03eead3d79a705eed7772c5b6569066" />
<rom name="ROCKMAN_X3 (Track 29).bin" size="15582000" crc="d6be16aa" md5="1e5e2e88f5acf90ec14e1776613700ab" sha1="3d3aa12280d87087b2cce2b7b9dbeac526185f95" />
<rom name="ROCKMAN_X3 (Track 30).bin" size="3019968" crc="7b1c1501" md5="657d3ad77aca0d8d90c342d9bb9b37b2" sha1="332b7f47130e7c8999733023f3fae38502512943" />
<rom name="ROCKMAN_X3 (Track 31).bin" size="21247968" crc="b4d769e1" md5="f15846ff61b7e0404e377d4616e9251f" sha1="05137829a53acab6a150965f354517c49507f3d2" />

    Cuesheet:

CATALOG 0000000000000
FILE "ROCKMAN_X3 (Track 01).bin" BINARY
  TRACK 01 MODE1/2352
    INDEX 01 00:00:00
FILE "ROCKMAN_X3 (Track 02).bin" BINARY
  TRACK 02 AUDIO
    INDEX 00 00:00:00
    INDEX 01 00:02:00
FILE "ROCKMAN_X3 (Track 03).bin" BINARY
  TRACK 03 AUDIO
    INDEX 00 00:00:00
    INDEX 01 00:02:00
FILE "ROCKMAN_X3 (Track 04).bin" BINARY
  TRACK 04 AUDIO
    INDEX 00 00:00:00
    INDEX 01 00:02:00
FILE "ROCKMAN_X3 (Track 05).bin" BINARY
  TRACK 05 AUDIO
    INDEX 00 00:00:00
    INDEX 01 00:02:00
FILE "ROCKMAN_X3 (Track 06).bin" BINARY
  TRACK 06 AUDIO
    INDEX 00 00:00:00
    INDEX 01 00:02:00
FILE "ROCKMAN_X3 (Track 07).bin" BINARY
  TRACK 07 AUDIO
    INDEX 00 00:00:00
    INDEX 01 00:02:00
FILE "ROCKMAN_X3 (Track 08).bin" BINARY
  TRACK 08 AUDIO
    INDEX 00 00:00:00
    INDEX 01 00:02:00
FILE "ROCKMAN_X3 (Track 09).bin" BINARY
  TRACK 09 AUDIO
    INDEX 00 00:00:00
    INDEX 01 00:02:00
FILE "ROCKMAN_X3 (Track 10).bin" BINARY
  TRACK 10 AUDIO
    INDEX 00 00:00:00
    INDEX 01 00:02:00
FILE "ROCKMAN_X3 (Track 11).bin" BINARY
  TRACK 11 AUDIO
    INDEX 00 00:00:00
    INDEX 01 00:02:00
FILE "ROCKMAN_X3 (Track 12).bin" BINARY
  TRACK 12 AUDIO
    INDEX 00 00:00:00
    INDEX 01 00:02:00
FILE "ROCKMAN_X3 (Track 13).bin" BINARY
  TRACK 13 AUDIO
    INDEX 00 00:00:00
    INDEX 01 00:02:00
FILE "ROCKMAN_X3 (Track 14).bin" BINARY
  TRACK 14 AUDIO
    INDEX 00 00:00:00
    INDEX 01 00:02:00
FILE "ROCKMAN_X3 (Track 15).bin" BINARY
  TRACK 15 AUDIO
    INDEX 00 00:00:00
    INDEX 01 00:02:00
FILE "ROCKMAN_X3 (Track 16).bin" BINARY
  TRACK 16 AUDIO
    INDEX 00 00:00:00
    INDEX 01 00:02:00
FILE "ROCKMAN_X3 (Track 17).bin" BINARY
  TRACK 17 AUDIO
    INDEX 00 00:00:00
    INDEX 01 00:02:00
FILE "ROCKMAN_X3 (Track 18).bin" BINARY
  TRACK 18 AUDIO
    INDEX 00 00:00:00
    INDEX 01 00:02:00
FILE "ROCKMAN_X3 (Track 19).bin" BINARY
  TRACK 19 AUDIO
    INDEX 00 00:00:00
    INDEX 01 00:02:00
FILE "ROCKMAN_X3 (Track 20).bin" BINARY
  TRACK 20 AUDIO
    INDEX 00 00:00:00
    INDEX 01 00:02:00
FILE "ROCKMAN_X3 (Track 21).bin" BINARY
  TRACK 21 AUDIO
    INDEX 00 00:00:00
    INDEX 01 00:02:00
FILE "ROCKMAN_X3 (Track 22).bin" BINARY
  TRACK 22 AUDIO
    INDEX 00 00:00:00
    INDEX 01 00:02:00
FILE "ROCKMAN_X3 (Track 23).bin" BINARY
  TRACK 23 AUDIO
    INDEX 00 00:00:00
    INDEX 01 00:02:00
FILE "ROCKMAN_X3 (Track 24).bin" BINARY
  TRACK 24 AUDIO
    INDEX 00 00:00:00
    INDEX 01 00:02:00
FILE "ROCKMAN_X3 (Track 25).bin" BINARY
  TRACK 25 AUDIO
    INDEX 00 00:00:00
    INDEX 01 00:02:00
FILE "ROCKMAN_X3 (Track 26).bin" BINARY
  TRACK 26 AUDIO
    INDEX 00 00:00:00
    INDEX 01 00:02:00
FILE "ROCKMAN_X3 (Track 27).bin" BINARY
  TRACK 27 AUDIO
    INDEX 00 00:00:00
    INDEX 01 00:02:00
FILE "ROCKMAN_X3 (Track 28).bin" BINARY
  TRACK 28 AUDIO
    INDEX 00 00:00:00
    INDEX 01 00:02:00
FILE "ROCKMAN_X3 (Track 29).bin" BINARY
  TRACK 29 AUDIO
    INDEX 00 00:00:00
    INDEX 01 00:02:00
FILE "ROCKMAN_X3 (Track 30).bin" BINARY
  TRACK 30 AUDIO
    INDEX 00 00:00:00
    INDEX 01 00:02:00
FILE "ROCKMAN_X3 (Track 31).bin" BINARY
  TRACK 31 AUDIO
    INDEX 00 00:00:00
    INDEX 01 00:02:00

    Write Offset: 0

http://redump.org/disc/3657/

Verification Data:
https://drive.google.com/file/d/1jO5SdP … sp=sharing

If you want to get a ton of dumps done and ready for upload, never batch dump without tagging. You will leave yourself with a myriad of untagged dumps and it will drive you nuts.