https://www.dropbox.com/s/1ocedm2qd1051 … _2.7z?dl=0
Matches: http://redump.org/disc/1464/

Common Disc Info:
    Title: Tekken 3
    System: Sony PlayStation
    Media Type: CD-ROM
    Category: Games
    Region: USA
    Languages: English
    Disc Serial: SLUS-00402

    Ringcode Information:
        Mastering Code (laser branded/etched): PSRM-009510    12
        Mastering SID Code: IFPI L327
        Data-Side Mould SID Code: IFPI 50E0
        Toolstamp or Mastering Code (engraved/stamped): A08
    Barcode: 7 22674 02079 4
    EXE/Build Date: 1998-03-31
    Error Count: 0

Version and Editions:
    Edition/Release: Greatest Hits

EDC:
    EDC: Yes

Extras:
    Primary Volume Descriptor (PVD):

0320 : 20 20 20 20 20 20 20 20  20 20 20 20 20 31 39 39                199
0330 : 38 30 33 33 31 30 31 30  30 30 31 30 30 24 30 30   8033101000100$00
0340 : 30 30 30 30 30 30 30 30  30 30 30 30 30 30 00 30   00000000000000.0
0350 : 30 30 30 30 30 30 30 30  30 30 30 30 30 30 30 00   000000000000000.
0360 : 30 30 30 30 30 30 30 30  30 30 30 30 30 30 30 30   0000000000000000
0370 : 00 01 00 00 00 00 00 00  00 00 00 00 00 00 00 00   ................

Copy Protection:
    Anti-modchip: No
    LibCrypt: No

Tracks and Write Offsets:
    DAT:

<rom name="Tekken 3 (USA) (Track 1).bin" size="632532768" crc="8131af42" md5="42c63a4674f569de7b1be95d7332cde2" sha1="68f32a8657376cb4d4504c160fd5e8ae4a4f18d6" />
<rom name="Tekken 3 (USA) (Track 2).bin" size="27701856" crc="28d8f221" md5="2605ec2d2b1aeae797816b851127307c" sha1="ba8cbc6a371250a92b3d12c1154f489bd6b4b70b" />
<rom name="Tekken 3 (USA) (Track 3).bin" size="28042896" crc="662fea9f" md5="c401e2c98525184e6d6be80bd40adbcc" sha1="a5b34e39603ed80fed8400d879b20b39aadfe1ba" />

    Cuesheet:

FILE "Tekken 3 (USA) (Track 1).bin" BINARY
  TRACK 01 MODE2/2352
    INDEX 01 00:00:00
FILE "Tekken 3 (USA) (Track 2).bin" BINARY
  TRACK 02 AUDIO
    INDEX 00 00:00:00
    INDEX 01 00:02:00
FILE "Tekken 3 (USA) (Track 3).bin" BINARY
  TRACK 03 AUDIO
    INDEX 00 00:00:00
    INDEX 01 00:02:00

    Write Offset: -12