https://www.dropbox.com/s/b7xsiljdp9f23 … _6.7z?dl=0
Matches: http://redump.org/disc/11260/

Common Disc Info:
    Title: Official U.S. PlayStation Magazine Demo Disc 31
    System: Sony PlayStation
    Media Type: CD-ROM
    Category: Demos
    Region: USA
    Languages: English
    Disc Serial: SCUS-94499

    Ringcode Information:
        Mastering Code (laser branded/etched): PSRM-017640    3
        Mastering SID Code: IFPI L330
        Data-Side Mould SID Code: IFPI 5010
        Toolstamp or Mastering Code (engraved/stamped): D06
    EXE/Build Date: 1999-12-17
    Error Count: 0

Version and Editions:
    Edition/Release: Original

EDC:
    EDC: Yes

Extras:
    Primary Volume Descriptor (PVD):

0320 : 20 20 20 20 20 20 20 20  20 20 20 20 20 31 39 39                199
0330 : 39 31 32 31 37 31 31 32  34 31 36 32 35 24 30 30   9121711241625$00
0340 : 30 30 30 30 30 30 30 30  30 30 30 30 30 30 00 30   00000000000000.0
0350 : 30 30 30 30 30 30 30 30  30 30 30 30 30 30 30 00   000000000000000.
0360 : 30 30 30 30 30 30 30 30  30 30 30 30 30 30 30 30   0000000000000000
0370 : 00 01 00 00 00 00 00 00  00 00 00 00 00 00 00 00   ................

Copy Protection:
    Anti-modchip: No
    LibCrypt: No

Tracks and Write Offsets:
    DAT:

<rom name="Official U.S. PlayStation Magazine Demo Disc 31 (USA) (Track 1).bin" size="343112112" crc="b1fa02ac" md5="42daee21cfdded9b075023d24cb14ba6" sha1="4f9597dd08ae6017d29dc8c384ae34f8320caddc" />
<rom name="Official U.S. PlayStation Magazine Demo Disc 31 (USA) (Track 2).bin" size="29816304" crc="d9a4a4fd" md5="27ae89ad10ea5b7a6bc4c832dc9e807f" sha1="a395fc3c4389b70957bd4a19864e1df661211b17" />
<rom name="Official U.S. PlayStation Magazine Demo Disc 31 (USA) (Track 3).bin" size="12406800" crc="a59a127d" md5="4a50ebd8ef2fb5940125d81370511219" sha1="85b8b95ffa55a4c5d76a07288e4bb3867a2cc4dc" />
<rom name="Official U.S. PlayStation Magazine Demo Disc 31 (USA) (Track 4).bin" size="1401792" crc="780b1fc7" md5="54734d3fe6f75e0d6cf73fa0d3b63c83" sha1="d11089e8cd3f7d9fc4dfd1156e1a02f2f992897a" />

    Cuesheet:

FILE "Official U.S. PlayStation Magazine Demo Disc 31 (USA) (Track 1).bin" BINARY
  TRACK 01 MODE2/2352
    INDEX 01 00:00:00
FILE "Official U.S. PlayStation Magazine Demo Disc 31 (USA) (Track 2).bin" BINARY
  TRACK 02 AUDIO
    INDEX 00 00:00:00
    INDEX 01 00:02:00
FILE "Official U.S. PlayStation Magazine Demo Disc 31 (USA) (Track 3).bin" BINARY
  TRACK 03 AUDIO
    INDEX 00 00:00:00
    INDEX 01 00:02:00
FILE "Official U.S. PlayStation Magazine Demo Disc 31 (USA) (Track 4).bin" BINARY
  TRACK 04 AUDIO
    INDEX 00 00:00:00
    INDEX 01 00:02:00

    Write Offset: -647