https://www.dropbox.com/s/br1zdfekt2369 … _3.7z?dl=0
Matches: http://redump.org/disc/15176/

Common Disc Info:
    Title: Squaresoft on PlayStation Collector's CD
    System: Sony PlayStation
    Media Type: CD-ROM
    Category: Demos
    Region: USA
    Languages: English
    Disc Serial: SCUS-94256

    Ringcode Information:
        Mastering Code (laser branded/etched): PSRM-010120    2
        Mastering SID Code: IFPI L330
        Data-Side Mould SID Code: IFPI 504D
    EXE/Build Date: 1998-03-20
    Error Count: 1

Version and Editions:
    Edition/Release: Original

EDC:
    EDC: No

Extras:
    Primary Volume Descriptor (PVD):

0320 : 20 20 20 20 20 20 20 20  20 20 20 20 20 31 39 39                199
0330 : 38 30 34 30 31 31 38 30  30 30 30 30 30 00 30 30   8040118000000.00
0340 : 30 30 30 30 30 30 30 30  30 30 30 30 30 30 00 30   00000000000000.0
0350 : 30 30 30 30 30 30 30 30  30 30 30 30 30 30 30 00   000000000000000.
0360 : 30 30 30 30 30 30 30 30  30 30 30 30 30 30 30 30   0000000000000000
0370 : 00 01 00 00 00 00 00 00  00 00 00 00 00 00 00 00   ................

Copy Protection:
    Anti-modchip: No
    LibCrypt: No

Tracks and Write Offsets:
    DAT:

<rom name="Squaresoft on PlayStation Collector's CD (USA) (Track 1).bin" size="252059136" crc="832552c6" md5="31705e7e326f31f28d17ce5a23b245e8" sha1="356f8e95149f86977f6c30bc8c8b4365e416d0db" />
<rom name="Squaresoft on PlayStation Collector's CD (USA) (Track 2).bin" size="26826912" crc="5f16ff59" md5="dde70d4c7d91d12de66420acb1b8f27d" sha1="ea44fcd76443f714993a758850254f2332efee38" />
<rom name="Squaresoft on PlayStation Collector's CD (USA) (Track 3).bin" size="1401792" crc="780b1fc7" md5="54734d3fe6f75e0d6cf73fa0d3b63c83" sha1="d11089e8cd3f7d9fc4dfd1156e1a02f2f992897a" />

    Cuesheet:

FILE "Squaresoft on PlayStation Collector's CD (USA) (Track 1).bin" BINARY
  TRACK 01 MODE2/2352
    INDEX 01 00:00:00
FILE "Squaresoft on PlayStation Collector's CD (USA) (Track 2).bin" BINARY
  TRACK 02 AUDIO
    INDEX 00 00:00:00
    INDEX 01 00:02:00
FILE "Squaresoft on PlayStation Collector's CD (USA) (Track 3).bin" BINARY
  TRACK 03 AUDIO
    INDEX 00 00:00:00
    INDEX 01 00:02:00

    Write Offset: 2