https://www.dropbox.com/s/s9ezjfbtdu9wb … _2.7z?dl=0
Matches: http://redump.org/disc/12708/

Common Disc Info:
    Title: PlayStation Underground Number 2
    Disc Number / Letter: 1
    System: Sony PlayStation
    Media Type: CD-ROM
    Category: Demos
    Region: USA
    Languages: English
    Disc Serial: SCUS-94178

    Ringcode Information:
        Mastering Code (laser branded/etched): PSRM-006770    1
        Mastering SID Code: IFPI L330
        Data-Side Mould SID Code: IFPI 509E
        Toolstamp or Mastering Code (engraved/stamped): A04
    EXE/Build Date: 1997-03-04
    Error Count: 0

Version and Editions:
    Edition/Release: Original

EDC:
    EDC: Yes

Extras:
    Primary Volume Descriptor (PVD):

0320 : 20 20 20 20 20 20 20 20  20 20 20 20 20 31 39 39                199
0330 : 36 30 39 31 39 31 34 30  34 32 38 30 30 24 30 30   6091914042800$00
0340 : 30 30 30 30 30 30 30 30  30 30 30 30 30 30 00 30   00000000000000.0
0350 : 30 30 30 30 30 30 30 30  30 30 30 30 30 30 30 00   000000000000000.
0360 : 30 30 30 30 30 30 30 30  30 30 30 30 30 30 30 30   0000000000000000
0370 : 00 01 00 00 00 00 00 00  00 00 00 00 00 00 00 00   ................

Copy Protection:
    Anti-modchip: No
    LibCrypt: No

Tracks and Write Offsets:
    DAT:

<rom name="PlayStation Underground Number 2 (USA) (Disc 1) (Track 1).bin" size="721156128" crc="757f1f6b" md5="19d2e070665e242cb5c55f0dcf6b8fb3" sha1="30e95d604733f05a1df24c85540bc67bb9bd8c59" />
<rom name="PlayStation Underground Number 2 (USA) (Disc 1) (Track 2).bin" size="26765760" crc="b6a2c6e6" md5="bdaebd20f84020d17dee50829628ebd2" sha1="f1d1320919acbb3bd083279718501c71d634facf" />
<rom name="PlayStation Underground Number 2 (USA) (Disc 1) (Track 3).bin" size="2810640" crc="1cedfbe7" md5="09607479224f7af39a820636b7cc80b3" sha1="3d6927d664fae2469f64cf14cb6fe244aa8e7faa" />

    Cuesheet:

FILE "PlayStation Underground Number 2 (USA) (Disc 1) (Track 1).bin" BINARY
  TRACK 01 MODE2/2352
    INDEX 01 00:00:00
FILE "PlayStation Underground Number 2 (USA) (Disc 1) (Track 2).bin" BINARY
  TRACK 02 AUDIO
    INDEX 00 00:00:00
    INDEX 01 00:02:00
FILE "PlayStation Underground Number 2 (USA) (Disc 1) (Track 3).bin" BINARY
  TRACK 03 AUDIO
    INDEX 00 00:00:00
    INDEX 01 00:02:00

    Write Offset: 2