https://www.dropbox.com/s/hq9fuklpfvkyj … _5.7z?dl=0
Matches: http://redump.org/disc/12739/

Common Disc Info:
    Title: PlayStation Underground Jampack: Winter '98
    System: Sony PlayStation
    Media Type: CD-ROM
    Category: Demos
    Region: USA
    Languages: English
    Disc Serial: SCUS-94293

    Ringcode Information:
        Mastering Code (laser branded/etched): PSRM-011720    1
        Mastering SID Code: IFPI L330
        Data-Side Mould SID Code: IFPI 5021
        Toolstamp or Mastering Code (engraved/stamped): A02
    Barcode: 7 11719 42932 6
    EXE/Build Date: 1998-10-15
    Error Count: 0

Version and Editions:
    Edition/Release: Original

EDC:
    EDC: Yes

Extras:
    Primary Volume Descriptor (PVD):

0320 : 20 20 20 20 20 20 20 20  20 20 20 20 20 31 39 39                199
0330 : 38 31 30 31 35 31 38 33  33 33 31 39 31 24 30 30   8101518333191$00
0340 : 30 30 30 30 30 30 30 30  30 30 30 30 30 30 00 30   00000000000000.0
0350 : 30 30 30 30 30 30 30 30  30 30 30 30 30 30 30 00   000000000000000.
0360 : 30 30 30 30 30 30 30 30  30 30 30 30 30 30 30 30   0000000000000000
0370 : 00 01 00 00 00 00 00 00  00 00 00 00 00 00 00 00   ................

Copy Protection:
    Anti-modchip: No
    LibCrypt: No

Tracks and Write Offsets:
    DAT:

<rom name="PlayStation Underground Jampack - Winter '98 (USA) (Track 1).bin" size="675101616" crc="f6030a44" md5="cecb867dfc541518b223b04c42cc86fd" sha1="cbe9759be9148e2fbdd087dd9616759fb9a1f8fe" />
<rom name="PlayStation Underground Jampack - Winter '98 (USA) (Track 2).bin" size="13580448" crc="ecfd0dab" md5="e979aa4e97e5e9f18ea0ffa9a772d64b" sha1="70981d45820d5b2500358c85152a39e790289935" />
<rom name="PlayStation Underground Jampack - Winter '98 (USA) (Track 3).bin" size="13596912" crc="68e21663" md5="35b02e55bbe0fa544d90422e8020493d" sha1="c7c37f1d07472ceb163b34be1db57e1a7303b865" />
<rom name="PlayStation Underground Jampack - Winter '98 (USA) (Track 4).bin" size="45901632" crc="56084ed3" md5="0e22fe96e4cdbfec7e8df5120bcb0016" sha1="cde487457b2fcc0e478dbde5ad03ddac7e44cdab" />
<rom name="PlayStation Underground Jampack - Winter '98 (USA) (Track 5).bin" size="1401792" crc="780b1fc7" md5="54734d3fe6f75e0d6cf73fa0d3b63c83" sha1="d11089e8cd3f7d9fc4dfd1156e1a02f2f992897a" />

    Cuesheet:

FILE "PlayStation Underground Jampack - Winter '98 (USA) (Track 1).bin" BINARY
  TRACK 01 MODE2/2352
    INDEX 01 00:00:00
FILE "PlayStation Underground Jampack - Winter '98 (USA) (Track 2).bin" BINARY
  TRACK 02 AUDIO
    INDEX 00 00:00:00
    INDEX 01 00:02:00
FILE "PlayStation Underground Jampack - Winter '98 (USA) (Track 3).bin" BINARY
  TRACK 03 AUDIO
    INDEX 00 00:00:00
    INDEX 01 00:02:00
FILE "PlayStation Underground Jampack - Winter '98 (USA) (Track 4).bin" BINARY
  TRACK 04 AUDIO
    INDEX 00 00:00:00
    INDEX 01 00:02:00
FILE "PlayStation Underground Jampack - Winter '98 (USA) (Track 5).bin" BINARY
  TRACK 05 AUDIO
    INDEX 00 00:00:00
    INDEX 01 00:02:00

    Write Offset: 2