https://www.dropbox.com/s/8s97mbwv9g43r … _4.7z?dl=0
Matches: http://redump.org/disc/14035/

Common Disc Info:
    Title: PlayStation Picks
    System: Sony PlayStation
    Media Type: CD-ROM
    Category: Demos
    Region: USA
    Languages: English
    Disc Serial: SCUS-94952

    Ringcode Information:
        Mastering Code (laser branded/etched): PSRM-000020    1
        Mastering SID Code: IFPI L330
        Data-Side Mould SID Code: IFPI 5019
    EXE/Build Date: 1995-07-17
    Error Count: 1

Version and Editions:
    Edition/Release: Original

EDC:
    EDC: No

Extras:
    Primary Volume Descriptor (PVD):

0320 : 20 20 20 20 20 20 20 20  20 20 20 20 20 31 39 39                199
0330 : 35 30 37 32 37 31 39 34  35 35 39 30 30 24 30 30   5072719455900$00
0340 : 30 30 30 30 30 30 30 30  30 30 30 30 30 30 00 30   00000000000000.0
0350 : 30 30 30 30 30 30 30 30  30 30 30 30 30 30 30 00   000000000000000.
0360 : 30 30 30 30 30 30 30 30  30 30 30 30 30 30 30 30   0000000000000000
0370 : 00 01 00 00 00 00 00 00  00 00 00 00 00 00 00 00   ................

Copy Protection:
    Anti-modchip: No
    LibCrypt: No

Tracks and Write Offsets:
    DAT:

<rom name="PlayStation Picks (USA) (SCUS-94952) (Track 01).bin" size="294508032" crc="40d1e1ba" md5="e7e5cbd5d23e966598e40cdf7f7080ea" sha1="c0e60a0d2e7535a974860b1b3f3f73baf5eb5e96" />
<rom name="PlayStation Picks (USA) (SCUS-94952) (Track 02).bin" size="34052256" crc="69f6f2c4" md5="469c7546a41167dbf4cf9a3acff70a2c" sha1="1e5c6cf0c7659a7c0f1bb46aad6f737a10dcc0de" />
<rom name="PlayStation Picks (USA) (SCUS-94952) (Track 03).bin" size="57666336" crc="5d63b0fa" md5="ac5c96dca383390e729840ca8b434794" sha1="f07f8258ec4a16bcba3a13995c320da16bc830a7" />
<rom name="PlayStation Picks (USA) (SCUS-94952) (Track 04).bin" size="11501280" crc="152643a6" md5="4929a82f393e3bfe710af037087dce68" sha1="5f7a328ffb5eb3f0649318745e9a44aeed46a2ac" />
<rom name="PlayStation Picks (USA) (SCUS-94952) (Track 05).bin" size="11821152" crc="1e57d80b" md5="3e60d9a54714c713d5ae6c72aeebd253" sha1="da08f0ffbe41663fe45d28f0dd6ec20f202bf7ab" />
<rom name="PlayStation Picks (USA) (SCUS-94952) (Track 06).bin" size="57174768" crc="6ec65808" md5="7617d4cfbcc37c9031e96e471863f4ec" sha1="9bda1d67ecb0a27d037d980d1ac6cd5d2e62f326" />
<rom name="PlayStation Picks (USA) (SCUS-94952) (Track 07).bin" size="10104192" crc="7a39d617" md5="3d327403f3436422c5113140ec028e17" sha1="8a6db828bd9c61a1895a48266634057a7d876ef6" />
<rom name="PlayStation Picks (USA) (SCUS-94952) (Track 08).bin" size="59505600" crc="89c753e0" md5="b798888c0788b143b7faff94562fe893" sha1="66b8e4ec53a5648e6a9742921b19dd2fa894bdb4" />
<rom name="PlayStation Picks (USA) (SCUS-94952) (Track 09).bin" size="21523152" crc="2c62eb8a" md5="fc66a3124188328b8d9a7a67264f0b48" sha1="3820997047510fb8058eec50fc4e2756538d9e78" />
<rom name="PlayStation Picks (USA) (SCUS-94952) (Track 10).bin" size="25570944" crc="79e365a4" md5="0757c28c497fea9fffc86894b5bea03e" sha1="6571d85ee39338e4404376623d5b4fbba5404ce6" />
<rom name="PlayStation Picks (USA) (SCUS-94952) (Track 11).bin" size="29381184" crc="ffd4a182" md5="8d711d4214d5b4cc5ebebd8722870de5" sha1="2b9d91bfbbcbe63d7562507cefcbbb4dbaf9db1f" />
<rom name="PlayStation Picks (USA) (SCUS-94952) (Track 12).bin" size="9005808" crc="ff880b4e" md5="722781c229b17f92457b8c571e31447d" sha1="6b6dc1e9d8631644ad4f9b1da0aea9b4e80f8789" />

    Cuesheet:

FILE "PlayStation Picks (USA) (SCUS-94952) (Track 01).bin" BINARY
  TRACK 01 MODE2/2352
    INDEX 01 00:00:00
FILE "PlayStation Picks (USA) (SCUS-94952) (Track 02).bin" BINARY
  TRACK 02 AUDIO
    INDEX 00 00:00:00
    INDEX 01 00:02:00
FILE "PlayStation Picks (USA) (SCUS-94952) (Track 03).bin" BINARY
  TRACK 03 AUDIO
    INDEX 00 00:00:00
    INDEX 01 00:02:00
FILE "PlayStation Picks (USA) (SCUS-94952) (Track 04).bin" BINARY
  TRACK 04 AUDIO
    INDEX 00 00:00:00
    INDEX 01 00:02:00
FILE "PlayStation Picks (USA) (SCUS-94952) (Track 05).bin" BINARY
  TRACK 05 AUDIO
    INDEX 00 00:00:00
    INDEX 01 00:02:00
FILE "PlayStation Picks (USA) (SCUS-94952) (Track 06).bin" BINARY
  TRACK 06 AUDIO
    INDEX 00 00:00:00
    INDEX 01 00:02:00
FILE "PlayStation Picks (USA) (SCUS-94952) (Track 07).bin" BINARY
  TRACK 07 AUDIO
    INDEX 00 00:00:00
    INDEX 01 00:02:00
FILE "PlayStation Picks (USA) (SCUS-94952) (Track 08).bin" BINARY
  TRACK 08 AUDIO
    INDEX 00 00:00:00
    INDEX 01 00:02:00
FILE "PlayStation Picks (USA) (SCUS-94952) (Track 09).bin" BINARY
  TRACK 09 AUDIO
    INDEX 00 00:00:00
    INDEX 01 00:02:00
FILE "PlayStation Picks (USA) (SCUS-94952) (Track 10).bin" BINARY
  TRACK 10 AUDIO
    INDEX 00 00:00:00
    INDEX 01 00:02:00
FILE "PlayStation Picks (USA) (SCUS-94952) (Track 11).bin" BINARY
  TRACK 11 AUDIO
    INDEX 00 00:00:00
    INDEX 01 00:02:00
FILE "PlayStation Picks (USA) (SCUS-94952) (Track 12).bin" BINARY
  TRACK 12 AUDIO
    INDEX 00 00:00:00
    INDEX 01 00:02:00

    Write Offset: 2