https://www.dropbox.com/s/koekuh2b22cgm … _4.7z?dl=0
Matches: http://redump.org/disc/53531/

Common Disc Info:
    Title: Pizza Hut Disc 2
    System: Sony PlayStation
    Media Type: CD-ROM
    Category: Demos
    Region: USA
    Languages: English
    Disc Serial: SCUS-94481

    Ringcode Information:
        Mastering Code (laser branded/etched): G4    1A    01
        Mastering SID Code: IFPI L424
        Data-Side Mould SID Code: IFPI 7275
    EXE/Build Date: 1999-09-16
    Error Count: 1

Version and Editions:
    Version: No EDC
    Edition/Release: Original

EDC:
    EDC: No

Extras:
    Primary Volume Descriptor (PVD):

0320 : 20 20 20 20 20 20 20 20  20 20 20 20 20 31 39 39                199
0330 : 39 30 39 31 36 31 32 35  39 35 36 37 39 24 30 30   9091612595679$00
0340 : 30 30 30 30 30 30 30 30  30 30 30 30 30 30 00 30   00000000000000.0
0350 : 30 30 30 30 30 30 30 30  30 30 30 30 30 30 30 00   000000000000000.
0360 : 30 30 30 30 30 30 30 30  30 30 30 30 30 30 30 30   0000000000000000
0370 : 00 01 00 00 00 00 00 00  00 00 00 00 00 00 00 00   ................

Copy Protection:
    Anti-modchip: No
    LibCrypt: No

Tracks and Write Offsets:
    DAT:

<rom name="Pizza Hut Disc 2 (USA) (No EDC) (Track 1).bin" size="213044160" crc="21b87b14" md5="62bb8f6a1d25dd41cbeb2102ad0c6f35" sha1="56535aa8066eb768e8a28b88c026525957b75952" />
<rom name="Pizza Hut Disc 2 (USA) (No EDC) (Track 2).bin" size="50316336" crc="62be41ad" md5="e23f230bbe6536719cba74192324cb05" sha1="a39deb359c16cc8881679e1c7e50376891c47df3" />
<rom name="Pizza Hut Disc 2 (USA) (No EDC) (Track 3).bin" size="1754592" crc="7c6c0eb5" md5="f7a378afc3b29632ccfcb662be8e0b4f" sha1="8d8b9f6e49c3da8980e6ebc36fa64884af6c5444" />

    Cuesheet:

FILE "Pizza Hut Disc 2 (USA) (No EDC) (Track 1).bin" BINARY
  TRACK 01 MODE2/2352
    INDEX 01 00:00:00
FILE "Pizza Hut Disc 2 (USA) (No EDC) (Track 2).bin" BINARY
  TRACK 02 AUDIO
    INDEX 00 00:00:00
    INDEX 01 00:04:00
FILE "Pizza Hut Disc 2 (USA) (No EDC) (Track 3).bin" BINARY
  TRACK 03 AUDIO
    INDEX 00 00:00:00
    INDEX 01 00:04:00

    Write Offset: 2