https://www.dropbox.com/s/wvyb0ikjiyn15 … 2x.7z?dl=0
Matches: http://redump.org/disc/10855/

Common Disc Info:
    Title: Interactive CD Sampler Pack Volume 3.5
    System: Sony PlayStation
    Media Type: CD-ROM
    Category: Demos
    Region: USA
    Languages: English
    Disc Serial: SCUS-94966

    Ringcode Information:
        Mastering Code (laser branded/etched): PSRM-005790    4
        Mastering SID Code: IFPI L330
        Data-Side Mould SID Code: IFPI 5087, IFPI 5100
        Toolstamp or Mastering Code (engraved/stamped): A01
    EXE/Build Date: 1997-02-12
    Error Count: 1

Version and Editions:
    Version: Rev 1
    Edition/Release: Original

EDC:
    EDC: No

Extras:
    Primary Volume Descriptor (PVD):

0320 : 20 20 20 20 20 20 20 20  20 20 20 20 20 31 39 39                199
0330 : 36 30 38 31 39 30 39 32  35 33 32 30 30 24 30 30   6081909253200$00
0340 : 30 30 30 30 30 30 30 30  30 30 30 30 30 30 00 30   00000000000000.0
0350 : 30 30 30 30 30 30 30 30  30 30 30 30 30 30 30 00   000000000000000.
0360 : 30 30 30 30 30 30 30 30  30 30 30 30 30 30 30 30   0000000000000000
0370 : 00 01 00 00 00 00 00 00  00 00 00 00 00 00 00 00   ................

Copy Protection:
    Anti-modchip: No
    LibCrypt: No

Tracks and Write Offsets:
    DAT:

<rom name="Interactive CD Sampler Pack Volume 3.5 (USA) (Rev 1) (Track 1).bin" size="581459088" crc="981ae5ea" md5="0211f4b14d215cf4c6f9b733d59af970" sha1="f179785958de3d6be789ed2a8ce09af7fbfdf2ff" />
<rom name="Interactive CD Sampler Pack Volume 3.5 (USA) (Rev 1) (Track 2).bin" size="20086080" crc="48085ec7" md5="5ee1542bf415d7eaf38552bf0e81e96d" sha1="1bfadce914fb9fb4e0691e3193a6653403df3628" />
<rom name="Interactive CD Sampler Pack Volume 3.5 (USA) (Rev 1) (Track 3).bin" size="12265680" crc="fe173bc2" md5="855339325dd4e394888ca347a4f8ddf9" sha1="5498fec3990ac8b690a2e207176406cb063c6593" />
<rom name="Interactive CD Sampler Pack Volume 3.5 (USA) (Rev 1) (Track 4).bin" size="21941808" crc="6401fd61" md5="1f881e8449bcbcc96ef7f716cfd01800" sha1="75ee586c5c9a80767ad86a1f8d6ff7ab9e985034" />
<rom name="Interactive CD Sampler Pack Volume 3.5 (USA) (Rev 1) (Track 5).bin" size="18524352" crc="346fcba5" md5="657b5124495c799298c1c0a438c2bb25" sha1="5236550f5280138d18c863ac84d60f97f38e7c2c" />
<rom name="Interactive CD Sampler Pack Volume 3.5 (USA) (Rev 1) (Track 6).bin" size="24519600" crc="f75ff014" md5="8f1e203ad069d8dd8b999ff66e185134" sha1="3f14a08c60c89fbffceea7758796f3d3ea1b3758" />
<rom name="Interactive CD Sampler Pack Volume 3.5 (USA) (Rev 1) (Track 7).bin" size="53275152" crc="639a2ff8" md5="6596ef05c8197b99fa1fe51cb772a034" sha1="4b816cd8db8c9175f0928a3e19894f38f6520e2e" />
<rom name="Interactive CD Sampler Pack Volume 3.5 (USA) (Rev 1) (Track 8).bin" size="1968624" crc="e9363633" md5="75678225f29839c0da1cd293320b3d56" sha1="ad50263b2570e1dccac4eb9c90466851f899da76" />

    Cuesheet:

FILE "Interactive CD Sampler Pack Volume 3.5 (USA) (Rev 1) (Track 1).bin" BINARY
  TRACK 01 MODE2/2352
    INDEX 01 00:00:00
FILE "Interactive CD Sampler Pack Volume 3.5 (USA) (Rev 1) (Track 2).bin" BINARY
  TRACK 02 AUDIO
    INDEX 00 00:00:00
    INDEX 01 00:02:00
FILE "Interactive CD Sampler Pack Volume 3.5 (USA) (Rev 1) (Track 3).bin" BINARY
  TRACK 03 AUDIO
    INDEX 00 00:00:00
    INDEX 01 00:02:00
FILE "Interactive CD Sampler Pack Volume 3.5 (USA) (Rev 1) (Track 4).bin" BINARY
  TRACK 04 AUDIO
    INDEX 00 00:00:00
    INDEX 01 00:02:00
FILE "Interactive CD Sampler Pack Volume 3.5 (USA) (Rev 1) (Track 5).bin" BINARY
  TRACK 05 AUDIO
    INDEX 00 00:00:00
    INDEX 01 00:02:00
FILE "Interactive CD Sampler Pack Volume 3.5 (USA) (Rev 1) (Track 6).bin" BINARY
  TRACK 06 AUDIO
    INDEX 00 00:00:00
    INDEX 01 00:02:00
FILE "Interactive CD Sampler Pack Volume 3.5 (USA) (Rev 1) (Track 7).bin" BINARY
  TRACK 07 AUDIO
    INDEX 00 00:00:00
    INDEX 01 00:02:00
FILE "Interactive CD Sampler Pack Volume 3.5 (USA) (Rev 1) (Track 8).bin" BINARY
  TRACK 08 AUDIO
    INDEX 00 00:00:00
    INDEX 01 00:02:00

    Write Offset: 2