Dumped by Denymetanol. Report if more Ring Code information is needed.


Logs:

https://mega.nz/#F!zKJkyYIQ!yq4WphnTM6IYo2J2pSwYLQ

Common Disc Info:

    Title: ASUKA 120% Burning Fest. Excellent
    Foreign Title (Non-latin): あすか 120% エクセレント (BURNING Fest.Excellent)
    Disc Number / Letter: MTC-1114
    Disc Title: (OPTIONAL)あすか 120% エクセレント (BURNING Fest.Excellent)
    System: Fujitsu FM Towns Marty
    Media Type: CD-ROM
    Category: Games
    Region: Japan
    Languages: Japanese
    Disc Serial: (REQUIRED, IF EXISTS)

    Ringcode Information:
        Mastering Code (laser branded/etched): MTC-1114
        Mastering SID Code: (REQUIRED, IF EXISTS)
        Data-Side Mould SID Code: (REQUIRED, IF EXISTS)
        Label-Side Mould SID Code: (REQUIRED, IF EXISTS)
        Additional Mould: (REQUIRED, IF EXISTS)
        Toolstamp or Mastering Code (engraved/stamped): (REQUIRED, IF EXISTS)
    Barcode: T4988709010079
    Error Count: 0
    Comments: (OPTIONAL)
    Contents: (OPTIONAL)

Version and Editions:
    Version: (REQUIRED, IF EXISTS)
    Edition/Release: Original (VERIFY THIS)

Extras:
    Primary Volume Descriptor (PVD):

0320 : 20 20 20 20 20 20 20 20  20 20 20 20 20 31 39 39                199
0330 : 34 31 32 30 33 30 30 35  32 33 30 30 30 00 31 39   4120300523000.19
0340 : 39 34 31 32 30 33 30 30  35 32 33 30 30 30 00 30   94120300523000.0
0350 : 30 30 30 30 30 30 30 30  30 30 30 30 30 30 30 00   000000000000000.
0360 : 31 39 39 34 31 32 30 33  30 30 35 32 33 30 30 30   1994120300523000
0370 : 00 01 00 00 00 00 00 00  00 00 00 00 00 00 00 00   ................

Tracks and Write Offsets:
    DAT:

<rom name="ASUKA (Track 01).bin" size="11830560" crc="2d5ade87" md5="77090f1d4ef27591dad6faca216c2b59" sha1="99314bca20b659f8fa0491db172a3a5a69dcda91" />
<rom name="ASUKA (Track 02).bin" size="7056000" crc="bf72cd8b" md5="d94ca61e4e05d89c4e4522e82f8c0a8f" sha1="3de6ed77a799f8403248b159d6639932c962f8be" />
<rom name="ASUKA (Track 03).bin" size="22402800" crc="0953ac0b" md5="443123ebe215cf2986d351a7fd9b9a62" sha1="4dfabbdc2450886932ff625bd498d1fab02d441f" />
<rom name="ASUKA (Track 04).bin" size="26989200" crc="dab3ace3" md5="7ec85ab02a204a7b3cf6ec7443834e81" sha1="19ff4c9b08ab54b46b90bd783aaebd9b672a3e22" />
<rom name="ASUKA (Track 05).bin" size="20638800" crc="3904ac43" md5="f17d126477a104c0112ad0b603a2d33b" sha1="e1874271dc63169f383daea1f9742b8573e2f6fb" />
<rom name="ASUKA (Track 06).bin" size="24872400" crc="5ceaf128" md5="b3173e4632d4b4b0cf41247f28f1efea" sha1="3393eaee62c216d26c69ceec80d061e6feff3af9" />
<rom name="ASUKA (Track 07).bin" size="19580400" crc="d323f48c" md5="b92f984ab482bb0b89cccebd420318f1" sha1="2eaca1d61f2d503dc4c06e447a1b879a7ab9ebe4" />
<rom name="ASUKA (Track 08).bin" size="19227600" crc="123ad2db" md5="927f82aa33a61d1ac86b641b21f0c966" sha1="33b4daeb9a30299d7b7d4f991a15aae6d323197b" />
<rom name="ASUKA (Track 09).bin" size="22755600" crc="9c0a7174" md5="a4da1e86e53e159dbd2918616d9f9d7b" sha1="7bdff7de4d55940287f25b1062e0b4bc2b3c5b76" />
<rom name="ASUKA (Track 10).bin" size="21697200" crc="9d2cb84f" md5="6b5721396afe9615c91e1b11940c8cf7" sha1="87d9e5c426d23c640ea0d7ef1d4461ac12ecd531" />
<rom name="ASUKA (Track 11).bin" size="18522000" crc="612da7d6" md5="be646c93595a3482dd2c3fc988b4782b" sha1="1b9ee8c23ef2b7123151bdc8ee80c307f1544652" />
<rom name="ASUKA (Track 12).bin" size="1940400" crc="7b190c97" md5="6921e6c5cab33dc9f5ba62a2ac204c20" sha1="7e52842f565c6424eb1db68d7e5de993a3a83402" />
<rom name="ASUKA (Track 13).bin" size="1940400" crc="67044e09" md5="0a3105db76270dbe62a337d39003a2ca" sha1="b0f2ebe01afe7bd56e7f2c3be0296facd6e167bd" />
<rom name="ASUKA (Track 14).bin" size="16228800" crc="e3af24b8" md5="0177ad03415027565d1ffb026499b8e8" sha1="46c708289972132d618fe3a73a7be9c02a34c728" />
<rom name="ASUKA (Track 15).bin" size="1764000" crc="3e07c223" md5="9a077f0f2ea912fa70495c4ad5afe5e6" sha1="4e9a4702f5b06dfbc4a1e5467264f709a9450dfa" />
<rom name="ASUKA (Track 16).bin" size="34574400" crc="c708ec54" md5="291eca1f36506eb0258d0b239315b56f" sha1="af447bf1f4f4f0aefdbbf72adeb5032784e079e2" />
<rom name="ASUKA (Track 17).bin" size="46216800" crc="626e9105" md5="c6a52b0223617a184765bd83c51f3177" sha1="2d161f953d574e223319567e076bea237026d23a" />

    Cuesheet:

FILE "ASUKA (Track 01).bin" BINARY
  TRACK 01 MODE1/2352
    INDEX 01 00:00:00
FILE "ASUKA (Track 02).bin" BINARY
  TRACK 02 AUDIO
    INDEX 00 00:00:00
    INDEX 01 00:02:00
FILE "ASUKA (Track 03).bin" BINARY
  TRACK 03 AUDIO
    INDEX 00 00:00:00
    INDEX 01 00:02:00
FILE "ASUKA (Track 04).bin" BINARY
  TRACK 04 AUDIO
    INDEX 00 00:00:00
    INDEX 01 00:02:00
FILE "ASUKA (Track 05).bin" BINARY
  TRACK 05 AUDIO
    INDEX 00 00:00:00
    INDEX 01 00:02:00
FILE "ASUKA (Track 06).bin" BINARY
  TRACK 06 AUDIO
    INDEX 00 00:00:00
    INDEX 01 00:02:00
FILE "ASUKA (Track 07).bin" BINARY
  TRACK 07 AUDIO
    INDEX 00 00:00:00
    INDEX 01 00:02:00
FILE "ASUKA (Track 08).bin" BINARY
  TRACK 08 AUDIO
    INDEX 00 00:00:00
    INDEX 01 00:02:00
FILE "ASUKA (Track 09).bin" BINARY
  TRACK 09 AUDIO
    INDEX 00 00:00:00
    INDEX 01 00:02:00
FILE "ASUKA (Track 10).bin" BINARY
  TRACK 10 AUDIO
    INDEX 00 00:00:00
    INDEX 01 00:02:00
FILE "ASUKA (Track 11).bin" BINARY
  TRACK 11 AUDIO
    INDEX 00 00:00:00
    INDEX 01 00:02:00
FILE "ASUKA (Track 12).bin" BINARY
  TRACK 12 AUDIO
    INDEX 00 00:00:00
    INDEX 01 00:02:00
FILE "ASUKA (Track 13).bin" BINARY
  TRACK 13 AUDIO
    INDEX 00 00:00:00
    INDEX 01 00:02:00
FILE "ASUKA (Track 14).bin" BINARY
  TRACK 14 AUDIO
    INDEX 00 00:00:00
    INDEX 01 00:02:00
FILE "ASUKA (Track 15).bin" BINARY
  TRACK 15 AUDIO
    INDEX 00 00:00:00
    INDEX 01 00:02:00
FILE "ASUKA (Track 16).bin" BINARY
  TRACK 16 AUDIO
    INDEX 00 00:00:00
    INDEX 01 00:02:00
FILE "ASUKA (Track 17).bin" BINARY
  TRACK 17 AUDIO
    INDEX 00 00:00:00
    INDEX 01 00:02:00

    Write Offset: 2

diego-rbb-93 wrote:

Report if more Ring Code information is needed.

Would be nice to recheck the ringcodes (or to get the photos).


https://img.aucfree.com/x556663994.3.jpg
https://auctions.c.yimg.jp/images.aucti … 857964.jpg

That "Omake Asuka 120% -Dance Ensemble- Yonao Keishi" thing is a bonus audio cd or what? Does he have it?