1 (edited by diego-rbb-93 2020-03-17 09:38:43)

Dumped by Denymetanol. Waiting for Ring Codes information.

Common Disc Info:
    Title: AZURE
    Foreign Title (Non-latin): AZURE(アジャ)
    Disc Number / Letter: (OPTIONAL)
    Disc Title: アジャ
    System: Fujitsu FM Towns Marty
    Media Type: CD-ROM
    Category: Games
    Region: Japan
    Languages: Japanese
    Disc Serial: MTC-1036

    Ringcode Information:
        Mastering Code (laser branded/etched): OP32IA
        Mastering SID Code: (REQUIRED, IF EXISTS)
        Data-Side Mould SID Code: (REQUIRED, IF EXISTS)
        Label-Side Mould SID Code: (REQUIRED, IF EXISTS)
        Additional Mould: (REQUIRED, IF EXISTS)
        Toolstamp or Mastering Code (engraved/stamped): (REQUIRED, IF EXISTS)
    Barcode: T4988709010031
    Error Count: 0
    Comments: (OPTIONAL)
    Contents: (OPTIONAL)

Version and Editions:
    Version: (REQUIRED, IF EXISTS)
    Edition/Release: Original (VERIFY THIS)

Extras:
    Primary Volume Descriptor (PVD):

0320 : 20 20 20 20 20 20 20 20  20 20 20 20 20 31 39 39                199
0330 : 33 30 31 32 36 30 39 34  35 30 30 30 30 00 31 39   3012609450000.19
0340 : 39 33 30 31 32 36 30 39  34 35 30 30 30 30 00 30   93012609450000.0
0350 : 30 30 30 30 30 30 30 30  30 30 30 30 30 30 30 00   000000000000000.
0360 : 30 30 30 30 30 30 30 30  30 30 30 30 30 30 30 30   0000000000000000
0370 : 00 01 00 00 00 00 00 00  00 00 00 00 00 00 00 00   ................

Tracks and Write Offsets:
    DAT:

<rom name="track (Track 01).bin" size="10231200" crc="02f834d3" md5="ac8da1c7abdfbbb205152a59cc7d5c2e" sha1="f04f79a667bfd7e7eb519168ea12b569c61194b6" />
<rom name="track (Track 02).bin" size="10407600" crc="c611a050" md5="992396471cf09c46cd514c45ea24f1a2" sha1="69df6ebc69fb98f51cf1e461983ca47801f221e6" />
<rom name="track (Track 03).bin" size="25401600" crc="9addc458" md5="8b568e98348648404d9c110558637b0f" sha1="efd13d9458bfa5fd58f4b01a01b349f03f5d75f1" />
<rom name="track (Track 04).bin" size="19933200" crc="3fb663f5" md5="787150b27af6570dac8b0af1b8107dbd" sha1="c35af4ff82bdaec1c60d206ea8c8b9172a84fb39" />
<rom name="track (Track 05).bin" size="25930800" crc="196cce7b" md5="a08dbfd9c5d2cfc6bda418bd581a8055" sha1="2bf185fcea4ac33ae698796cf43cd1fcb54e55ea" />
<rom name="track (Track 06).bin" size="26283600" crc="0dcac824" md5="2fde01790d2380ed87326707481b14f7" sha1="eda9abb275e238d7b3be1f9afd34ecd9d481a7c9" />
<rom name="track (Track 07).bin" size="30870000" crc="100c8c32" md5="b296a025632e56c9001b838c785951b7" sha1="dbb2461028bd4e66fc7070672b806374ecedc6c2" />
<rom name="track (Track 08).bin" size="33692400" crc="cc910c5f" md5="3aa987519c7e66a2351af2ef3f212238" sha1="0366b87d25bfff15621735debfd1fadfc34a3f4b" />
<rom name="track (Track 09).bin" size="46922400" crc="4d73ea00" md5="78d675ac66454226869b592011587d35" sha1="0cd84a368e74a1d9a72db39b2d9b676e570e93d7" />
<rom name="track (Track 10).bin" size="34045200" crc="dbaa8279" md5="eed62cfd2ff44aa74ae2c88869faa118" sha1="8666cf091ce3aef33c472b1a133d37b485f5ec41" />
<rom name="track (Track 11).bin" size="34045200" crc="b1a1298c" md5="4c7debb34ee2733435498f20a4f66032" sha1="17ccf53d9fc774b67b07fcda249543fd17de2e49" />

    Cuesheet:

CATALOG 0000000000000
FILE "track (Track 01).bin" BINARY
  TRACK 01 MODE1/2352
    INDEX 01 00:00:00
FILE "track (Track 02).bin" BINARY
  TRACK 02 AUDIO
    INDEX 00 00:00:00
    INDEX 01 00:02:00
FILE "track (Track 03).bin" BINARY
  TRACK 03 AUDIO
    INDEX 00 00:00:00
    INDEX 01 00:02:00
FILE "track (Track 04).bin" BINARY
  TRACK 04 AUDIO
    INDEX 00 00:00:00
    INDEX 01 00:02:00
FILE "track (Track 05).bin" BINARY
  TRACK 05 AUDIO
    INDEX 00 00:00:00
    INDEX 01 00:02:00
FILE "track (Track 06).bin" BINARY
  TRACK 06 AUDIO
    INDEX 00 00:00:00
    INDEX 01 00:02:00
FILE "track (Track 07).bin" BINARY
  TRACK 07 AUDIO
    INDEX 00 00:00:00
    INDEX 01 00:02:00
FILE "track (Track 08).bin" BINARY
  TRACK 08 AUDIO
    INDEX 00 00:00:00
    INDEX 01 00:02:00
FILE "track (Track 09).bin" BINARY
  TRACK 09 AUDIO
    INDEX 00 00:00:00
    INDEX 01 00:02:00
FILE "track (Track 10).bin" BINARY
  TRACK 10 AUDIO
    INDEX 00 00:00:00
    INDEX 01 00:02:00
FILE "track (Track 11).bin" BINARY
  TRACK 11 AUDIO
    INDEX 00 00:00:00
    INDEX 01 00:02:00

    Write Offset: -1615

diego-rbb-93 wrote:

Disc Serial: MTC-1036    Ringcode Information:        Mastering Code (laser branded/etched): OP32IA

Expecting something like "MTC-1036[TAB]OP32IA". I think he misunderstands the "Disc Serial" part - it's NOT on the ringcode, but on the disc label smile

3 (edited by diego-rbb-93 2020-03-17 22:51:16)

Sorry:

https://mega.nz/#F!zKJkyYIQ!yq4WphnTM6IYo2J2pSwYLQ