1 (edited by 1nick9 2020-01-17 05:14:48)

ld section dump info

Common Disc Info:
    Title: Sonic Adventure
    Foreign Title (Non-latin): (OPTIONAL)
    Disc Number / Letter: (OPTIONAL)
    Disc Title: (OPTIONAL)
    System: Sega Dreamcast
    Media Type: CD-ROM
    Category: Games
    Region: Europe
    Languages: Klingon (CHANGE THIS)
    Disc Serial: MK-51000-50

    Ringcode Information:
        Mastering Code (laser branded/etched): MK-51000-0017SS    A
        Mastering SID Code: IFPI LA03
        Data-Side Mould SID Code: IFPI 3T08
        Label-Side Mould SID Code: (REQUIRED, IF EXISTS)
        Additional Mould: (REQUIRED, IF EXISTS)
        Toolstamp or Mastering Code (engraved/stamped): (REQUIRED, IF EXISTS)
    Barcode: 4 4974365 503017
    EXE/Build Date: (REQUIRED)
    Error Count: 0
    Comments: (OPTIONAL)
    Contents: (OPTIONAL)

Version and Editions:
    Version: V1.003
    Edition/Release: Original

Extras:
    Primary Volume Descriptor (PVD):

0320 : 20 20 20 20 20 20 20 20  20 20 20 20 20 31 39 39                199
0330 : 39 30 39 30 39 32 33 30  30 30 30 30 30 E4 31 39   9090923000000.19
0340 : 39 39 30 39 30 39 32 33  30 30 30 30 30 30 E4 30   99090923000000.0
0350 : 30 30 30 30 30 30 30 30  30 30 30 30 30 30 30 00   000000000000000.
0360 : 30 30 30 30 30 30 30 30  30 30 30 30 30 30 30 30   0000000000000000
0370 : 00 01 00 00 00 00 00 00  00 00 00 00 00 00 00 00   ................

Tracks and Write Offsets:
    DAT:

<rom name="SONIC_ADV (Track 1).bin" size="26721072" crc="2ef14020" md5="b9ed5dc4b9b183501ffb7f718a0d1f69" sha1="39f1cd8f99667d22fdb292f0af55129d7443bcaf" />
<rom name="SONIC_ADV (Track 2).bin" size="14347200" crc="49e43706" md5="9cca4624e62f04dc398aed22b5370a34" sha1="a34bdc73ac1e360b13d0592b501a388e0225e994" />

    Cuesheet:

FILE "SONIC_ADV (Track 1).bin" BINARY
  TRACK 01 MODE1/2352
    INDEX 01 00:00:00
FILE "SONIC_ADV (Track 2).bin" BINARY
  TRACK 02 AUDIO
    INDEX 00 00:00:00
    INDEX 01 00:02:00

    Write Offset: 13

hd section
ice output

ice @20090609 / themabus@inbox.lv
---------------------------------
dense.bin
---------------------------------
Accessing                       : ok
Seeking 1st valid Mode1 sector  : ok
 LBA found                      : 44990
 @file offset                   : $0000004C
 Scrambled                      : TRUE
Seeking LBA 45000               : ok
 Combined offset (samples)      : 19
Parsing IP.BIN                  : ok
 Writting 'ip.txt'              : ok
Parsing TOC                     : ok
 TOC entries                    : 4
 Writting 'redump.cue'          : ok
---------------------------------
03  Mode1   45000  549149  504150 ok
---------------------------------
done

ip.txt

Application title:
SONIC ADVENTURE

Developer:
SEGA ENTERPRISES

Publisher:
SEGA ENTERPRISES

Disc number:
GD-ROM1/1

Supported regions:
E

Internal serial:
MK-5100050

Version number:
V1.003

Release date (YYYY-MM-DD):
1999-09-09

CRC16: TRUE
1920

Disc identifier: TRUE
SEGA SEGAKATANA

First read file name:
1ST_READ.BIN

UNKNOWN (reserved?):


Additional flags: 0601A10
-------------------------
Minimal set of buttons required by application:
 Start, A, B, Direction buttons: TRUE
 C button: FALSE
 D button: FALSE
 X button: FALSE
 Y button: FALSE
 Z button: FALSE
 Expanded direction buttons: FALSE
 Analog R Trigger: FALSE
 Analog L Trigger: FALSE
 Standard analog X: TRUE
 Standard analog Y: TRUE
 Expanded analog X: FALSE
 Expanded analog Y: FALSE

Supported peripherals:
 Mouse: FALSE
 Gun controller: FALSE
 Keyboard: FALSE

Supported expanded peripherals:
 Memory card: TRUE
 Sound input peripheral (SIP): FALSE
 Vibrator: TRUE
 Other devices: FALSE

VGA Box supported: TRUE
Use WindowsCE: FALSE

cue

FILE "Track 01.bin" BINARY
  TRACK 01 MODE1/2352
    INDEX 01 00:00:00
FILE "Track 02.bin" BINARY
  TRACK 02 AUDIO
    INDEX 00 00:00:00
    INDEX 01 00:02:00

FILE "Track 03.bin" BINARY
  TRACK 03 MODE1/2352
    INDEX 01 00:00:00

checksums

Name:    Track 03.bin
Size:    1185760800
CRC32:    cb447185
MD5:    4df671c2091877bc3dd9b8907649ded4
SHA1:    3211dbdb233c12d8d5af852c05f6c2c0d3ba3c1e
Post's attachments

SONIC_ADV.7z 176.16 kb, file has never been downloaded. 

You don't have the permssions to download the attachments of this post.