1 (edited by gingerbeardman 2020-03-13 16:23:26)

Logs: https://www.mediafire.com/file/kbjf3kh0 … gs.7z/file

Common Disc Info:
    Title: Animal Koi-Koi
    Foreign Title (Non-latin): 『家庭教師ヒットマンREBORN!』 二次創作 ジャンル:花札ゲーム
    Disc Number / Letter: (OPTIONAL)
    Disc Title: ANIKOI
    System: IBM PC Compatible
    Media Type: CD-ROM
    Category: Games
    Region: Japan
    Languages: Japanese
    Disc Serial: (REQUIRED, IF EXISTS)

    Ringcode Information:
        Mastering Code (laser branded/etched): (REQUIRED, IF EXISTS)
        Mastering SID Code: (REQUIRED, IF EXISTS)
        Data-Side Mould SID Code: (REQUIRED, IF EXISTS)
        Label-Side Mould SID Code: 5K070C0278080
        Additional Mould: (REQUIRED, IF EXISTS)
        Toolstamp or Mastering Code (engraved/stamped): (REQUIRED, IF EXISTS)
    Barcode: (OPTIONAL)
    Error Count: 0
    Comments: [T:ISBN] (OPTIONAL)
    Contents: http://blue.uunyan.com

Version and Editions:
    Version: (REQUIRED, IF EXISTS)
    Edition/Release: Original

Extras:
    Primary Volume Descriptor (PVD):

0320 : 20 20 20 20 20 20 20 20  20 20 20 20 20 32 30 31                201
0330 : 30 31 30 31 30 31 39 31  32 33 39 32 31 24 30 30   0101019123921$00
0340 : 30 30 30 30 30 30 30 30  30 30 30 30 30 30 24 30   00000000000000$0
0350 : 30 30 30 30 30 30 30 30  30 30 30 30 30 30 30 24   000000000000000$
0360 : 30 30 30 30 30 30 30 30  30 30 30 30 30 30 30 30   0000000000000000
0370 : 24 01 00 00 00 00 00 00  00 00 00 00 00 00 00 00   $...............

Copy Protection:
    Copy Protection: D:\setup\anikoi\anikoi.exe: CD Check

Tracks and Write Offsets:
    DAT:

<rom name="ANIKOI.bin" size="52795344" crc="48f68487" md5="8339018adaebcb6b2fbd6329ef857780" sha1="ddf16d197433e5e7868b2d9a494757f4a0aed7b2" />

    Cuesheet:

FILE "ANIKOI.bin" BINARY
  TRACK 01 MODE1/2352
    INDEX 01 00:00:00

    Write Offset: 0
Common Disc Info:
    Title: Battle Hanafuda
    Foreign Title (Non-latin): バトル花札
    Disc Number / Letter: (OPTIONAL)
    Disc Title: B HANAFUDA
    System: IBM PC Compatible
    Media Type: CD-ROM
    Category: Games
    Region: Japan
    Languages: Japanese
    Disc Serial: SRRW 90

    Ringcode Information:
        Mastering Code (laser branded/etched): VRA-48<tab>1
        Mastering SID Code: IFPI L275
        Data-Side Mould SID Code: IFPI 456C
        Label-Side Mould SID Code: (REQUIRED, IF EXISTS)
        Additional Mould: (REQUIRED, IF EXISTS)
        Toolstamp or Mastering Code (engraved/stamped): (REQUIRED, IF EXISTS)
    Barcode: 4 988009 024097
    Error Count: 1
    Comments: [T:ISBN] (OPTIONAL)
    Contents: (OPTIONAL)

Version and Editions:
    Version: (REQUIRED, IF EXISTS)
    Edition/Release: Original (Happy Net 1000 game series)

Extras:
    Primary Volume Descriptor (PVD):

0320 : 20 20 20 20 20 20 20 20  20 20 20 20 20 32 30 30                200
0330 : 31 30 38 30 32 31 32 30  34 32 32 30 30 24 32 30   1080212042200$20
0340 : 30 31 30 38 30 32 31 32  30 34 32 32 30 30 24 30   01080212042200$0
0350 : 30 30 30 30 30 30 30 30  30 30 30 30 30 30 30 00   000000000000000.
0360 : 30 30 30 30 30 30 30 30  30 30 30 30 30 30 30 30   0000000000000000
0370 : 00 01 00 00 00 00 00 00  00 00 00 00 00 00 00 00   ................

Copy Protection:
    Copy Protection: D:\So-net\Signup\STARTER.EXE: CD Check

Tracks and Write Offsets:
    DAT:

<rom name="B HANAFUDA.bin" size="65601984" crc="a0b51536" md5="ef369b5da867d7fdbcac2ffb520ae398" sha1="8f1c59c6a8f1407df9401959c41c720e803f65cb" />

    Cuesheet:

FILE "B HANAFUDA.bin" BINARY
  TRACK 01 MODE1/2352
    INDEX 01 00:00:00

    Write Offset: 2

Common Disc Info:
    Title: Game Fan 1200 Vol.6 Hanafuda / Backgammon / Spinner Strikes Back
    Foreign Title (Non-latin): ゲームファン1200 Vol.6 花札・バックギャモン・スピナーの逆襲
    Disc Number / Letter: (OPTIONAL)
    Disc Title: Game Fan 1200 6
    System: IBM PC Compatible
    Media Type: CD-ROM
    Category: Games
    Region: Japan
    Languages: Japanese
    Disc Serial: AQUC-W1006E1

    Ringcode Information:
        Mastering Code (laser branded/etched): (REQUIRED, IF EXISTS)
        Mastering SID Code: (REQUIRED, IF EXISTS)
        Data-Side Mould SID Code: IFPI 4437
        Label-Side Mould SID Code: (REQUIRED, IF EXISTS)
        Additional Mould: (REQUIRED, IF EXISTS)
        Toolstamp or Mastering Code (engraved/stamped): (REQUIRED, IF EXISTS)
    Barcode: 4 975433 236714
    Error Count: 0
    Comments: [T:ISBN] (OPTIONAL)
    Contents: (OPTIONAL)

Version and Editions:
    Version: (REQUIRED, IF EXISTS)
    Edition/Release: Original (ゲームファン1200)

Extras:
    Primary Volume Descriptor (PVD):

0320 : 20 20 20 20 20 20 20 20  20 20 20 20 20 31 39 39                199
0330 : 39 31 32 32 30 31 33 35  36 33 35 30 30 00 31 39   9122013563500.19
0340 : 39 39 31 32 32 30 31 34  35 33 30 35 30 30 00 00   99122014530500..
0350 : 00 00 00 00 00 00 00 00  00 00 00 00 00 00 00 00   ................
0360 : 00 00 00 00 00 00 00 00  00 00 00 00 00 00 00 00   ................
0370 : 00 01 00 00 00 00 00 00  00 00 00 00 00 00 00 00   ................

Copy Protection:
    Copy Protection:

D:\_sys1.cab: CD Check
D:\DIRECTX\MSVCRT.DLL: CD Check

Tracks and Write Offsets:
    DAT:

<rom name="Game Fan 1200 6.bin" size="79779840" crc="cf213fe7" md5="9140ca630296f76a79170b07a3d49a19" sha1="9fe4454cf139a31105551856737ca61c82ba2bae" />

    Cuesheet:

CATALOG 0000000000000
FILE "Game Fan 1200 6.bin" BINARY
  TRACK 01 MODE1/2352
    INDEX 01 00:00:00

    Write Offset: 0
Common Disc Info:
    Title: Toraburu Hanafuda Chuki EX
    Foreign Title (Non-latin): トラぶる花札道中記EX(エクセリオン)
    Disc Number / Letter: (OPTIONAL)
    Disc Title: TORABORU TRAVELHJOURNAL EXERION
    System: IBM PC Compatible
    Media Type: CD-ROM
    Category: Games
    Region: Japan
    Languages: Japanese
    Disc Serial: (REQUIRED, IF EXISTS)

    Ringcode Information:
        Mastering Code (laser branded/etched): TMXPCG-002A01<SPACE>1
        Mastering SID Code: IFPI L154
        Data-Side Mould SID Code: 28E9
        Label-Side Mould SID Code: (REQUIRED, IF EXISTS)
        Additional Mould: (REQUIRED, IF EXISTS)
        Toolstamp or Mastering Code (engraved/stamped): A1
    Barcode: (OPTIONAL)
    Error Count: 0
    Comments: DISC LABEL AND SPINE SAY: NOT FOR SALE
    Contents: GAME PATCH DISC

Version and Editions:
    Version: (REQUIRED, IF EXISTS)
    Edition/Release: Original

Extras:
    Primary Volume Descriptor (PVD):

0320 : 20 20 20 20 20 20 20 20  20 20 20 20 20 32 30 30                200
0330 : 36 30 37 31 38 31 36 30  34 30 30 30 30 24 32 30   6071816040000$20
0340 : 30 36 30 37 31 38 31 36  30 34 30 30 30 30 24 30   06071816040000$0
0350 : 30 30 30 30 30 30 30 30  30 30 30 30 30 30 30 00   000000000000000.
0360 : 30 30 30 30 30 30 30 30  30 30 30 30 30 30 30 30   0000000000000000
0370 : 00 01 00 00 00 00 00 00  00 00 00 00 00 00 00 00   ................

Copy Protection:
    Copy Protection: None found

Tracks and Write Offsets:
    DAT:

<rom name="hanafuda_patch.bin" size="71505504" crc="40a6d24b" md5="c6d2754a75278108976284bcacfd4d76" sha1="0c66f161f666a8bb58487972607567f5a7e1e26e" />

    Cuesheet:

FILE "hanafuda_patch.bin" BINARY
  TRACK 01 MODE1/2352
    INDEX 01 00:00:00

    Write Offset: -12
Common Disc Info:
    Title: Hanafuda Tenkomori for Dad
    Foreign Title (Non-latin): お父さんのための花札てんこもり
    Disc Number / Letter: (OPTIONAL)
    Disc Title: HANATEN
    System: IBM PC Compatible
    Media Type: CD-ROM
    Category: Games
    Region: Japan
    Languages: Japanese
    Disc Serial: THT-063

    Ringcode Information:
        Mastering Code (laser branded/etched): (REQUIRED, IF EXISTS)
        Mastering SID Code: (REQUIRED, IF EXISTS)
        Data-Side Mould SID Code: IFPI 9A01
        Label-Side Mould SID Code: (REQUIRED, IF EXISTS)
        Additional Mould: (REQUIRED, IF EXISTS)
        Toolstamp or Mastering Code (engraved/stamped): (REQUIRED, IF EXISTS)
    Barcode: 4 0539820 000779
    Error Count: 0
    Comments: for Windows 95/98
    Contents: (OPTIONAL)

Version and Editions:
    Version: 1
    Edition/Release: Original (お父さんのための series)

Extras:
    Primary Volume Descriptor (PVD):

0320 : 20 20 20 20 20 20 20 20  20 20 20 20 20 32 30 30                200
0330 : 30 30 38 30 32 31 32 32  37 34 31 30 30 00 30 30   0080212274100.00
0340 : 30 30 30 30 30 30 30 30  30 30 30 30 30 30 00 30   00000000000000.0
0350 : 30 30 30 30 30 30 30 30  30 30 30 30 30 30 30 00   000000000000000.
0360 : 30 30 30 30 30 30 30 30  30 30 30 30 30 30 30 30   0000000000000000
0370 : 00 01 00 00 00 00 00 00  00 00 00 00 00 00 00 00   ................

Copy Protection:
    Copy Protection:

D:\_SYS1.CAB: CD Check
D:\DIRECTX\DXINFO.EXE: CD Check

Tracks and Write Offsets:
    DAT:

<rom name="HANATEN.bin" size="102747120" crc="7e6d9eff" md5="c0699aa08b99a3a7678d5143a8e3a395" sha1="5fe67de0ef3f77df2f18930b34c80c119382bd0f" />

    Cuesheet:

FILE "HANATEN.bin" BINARY
  TRACK 01 MODE1/2352
    INDEX 01 00:00:00

    Write Offset: -12
Common Disc Info:
    Title: Hanafuda Tenkomori
    Foreign Title (Non-latin): 花札 てんこもり
    Disc Number / Letter: (OPTIONAL)
    Disc Title: 花札 てんこもり
    System: IBM PC Compatible
    Media Type: CD-ROM
    Category: Games
    Region: Japan
    Languages: Japanese
    Disc Serial: WNT-384

    Ringcode Information:
        Mastering Code (laser branded/etched): (REQUIRED, IF EXISTS)
        Mastering SID Code: IFPI LT46
        Data-Side Mould SID Code: IFPI 4444
        Label-Side Mould SID Code: (REQUIRED, IF EXISTS)
        Additional Mould: (REQUIRED, IF EXISTS)
        Toolstamp or Mastering Code (engraved/stamped): (REQUIRED, IF EXISTS)
    Barcode: 4 539820 004012
    Error Count: 0
    Comments: for Windows XP/Vista/7/8/8.1
    Contents: (OPTIONAL)

Version and Editions:
    Version: 1
    Edition/Release: Bakuhatsuteki Game Series

Extras:
    Primary Volume Descriptor (PVD):

0320 : 20 20 20 20 20 20 20 20  20 20 20 20 20 32 30 31                201
0330 : 30 31 31 30 31 31 37 35  37 35 35 31 34 24 30 30   0110117575514$00
0340 : 30 30 30 30 30 30 30 30  30 30 30 30 30 30 24 30   00000000000000$0
0350 : 30 30 30 30 30 30 30 30  30 30 30 30 30 30 30 24   000000000000000$
0360 : 30 30 30 30 30 30 30 30  30 30 30 30 30 30 30 30   0000000000000000
0370 : 24 01 00 00 00 00 00 00  00 00 00 00 00 00 00 00   $...............

Copy Protection:
    Copy Protection:

D:\data1.hdr: PE Compact 2
D:\ISSetup.dll: PE Compact 2
D:\setup.exe: CD Check

Tracks and Write Offsets:
    DAT:

<rom name="HANATEN.bin" size="80661840" crc="262bcda7" md5="9df800609cf95876dfcb5a1fedbeee7c" sha1="7f395244c9c97bd6d4a8e483715c9f788953f389" />

    Cuesheet:

FILE "HANATEN.bin" BINARY
  TRACK 01 MODE1/2352
    INDEX 01 00:00:00

    Write Offset: 13
Common Disc Info:
    Title: Magnolia Trump, Hanafuda, Hyakuninisshu
    Foreign Title (Non-latin): ITトランプ・花札・百人一首
    Disc Number / Letter: (OPTIONAL)
    Disc Title: ITTH01
    System: IBM PC Compatible
    Media Type: CD-ROM
    Category: Games
    Region: Japan
    Languages: Japanese
    Disc Serial: ITTH-01

    Ringcode Information:
        Mastering Code (laser branded/etched): ITTH-01-C<SPACE>MT<SPACE>N31
        Mastering SID Code: IFPI LT46
        Data-Side Mould SID Code: IFPI 442J
        Label-Side Mould SID Code: (REQUIRED, IF EXISTS)
        Additional Mould: (REQUIRED, IF EXISTS)
        Toolstamp or Mastering Code (engraved/stamped): (REQUIRED, IF EXISTS)
    Barcode: 4 539464 002627
    Error Count: 0
    Comments: [T:ISBN] (OPTIONAL)
    Contents: (OPTIONAL)

Version and Editions:
    Version: 1
    Edition/Release: Original

Extras:
    Primary Volume Descriptor (PVD):

0320 : 20 20 20 20 20 20 20 20  20 20 20 20 20 32 30 30                200
0330 : 39 31 30 30 32 31 31 31  33 30 30 30 00 24 32 30   910021113000.$20
0340 : 30 39 31 30 30 32 31 31  31 33 30 30 30 00 24 30   0910021113000.$0
0350 : 30 30 30 30 30 30 30 30  30 30 30 30 30 30 30 00   000000000000000.
0360 : 30 30 30 30 30 30 30 30  30 30 30 30 30 30 30 30   0000000000000000
0370 : 00 01 00 00 00 00 00 00  00 00 00 00 00 00 00 00   ................

Copy Protection:
    Copy Protection: D:\setup.exe: CD Check

Tracks and Write Offsets:
    DAT:

<rom name="ITTH01.bin" size="141308160" crc="a0baa53e" md5="99a3ab30dba145ea817fad257076cdbd" sha1="2fdd1e448fca223f0ec02b0895f2000884a2b345" />

    Cuesheet:

FILE "ITTH01.bin" BINARY
  TRACK 01 MODE1/2352
    INDEX 01 00:00:00

    Write Offset: 13
Common Disc Info:
    Title: 3D GOLF
    Foreign Title (Non-latin): 3Dゴルフ
    Disc Number / Letter: (OPTIONAL)
    Disc Title: S_GOLFD3D
    System: IBM PC Compatible
    Media Type: CD-ROM
    Category: Games
    Region: Japan
    Languages: Japanese
    Disc Serial: TGC-202-1

    Ringcode Information:
        Mastering Code (laser branded/etched): (REQUIRED, IF EXISTS)
        Mastering SID Code: (REQUIRED, IF EXISTS)
        Data-Side Mould SID Code: IFPI 9A09
        Label-Side Mould SID Code: (REQUIRED, IF EXISTS)
        Additional Mould: (REQUIRED, IF EXISTS)
        Toolstamp or Mastering Code (engraved/stamped): (REQUIRED, IF EXISTS)
    Barcode: 4 539820 001073
    Error Count: 0
    Comments: [T:ISBN] (OPTIONAL)
    Contents: (OPTIONAL)

Version and Editions:
    Version: (REQUIRED, IF EXISTS)
    Edition/Release: Original (1980+NET series)

Extras:
    Primary Volume Descriptor (PVD):

0320 : 20 20 20 20 20 20 20 20  20 20 20 20 20 32 30 30                200
0330 : 33 30 34 30 31 31 39 34  35 33 30 34 33 24 30 30   3040119453043$00
0340 : 30 30 30 30 30 30 30 30  30 30 30 30 30 30 24 30   00000000000000$0
0350 : 30 30 30 30 30 30 30 30  30 30 30 30 30 30 30 24   000000000000000$
0360 : 30 30 30 30 30 30 30 30  30 30 30 30 30 30 30 30   0000000000000000
0370 : 24 01 00 00 00 00 00 00  00 00 00 00 00 00 00 00   $...............

Copy Protection:
    Copy Protection:

D:\DirectX7\DIRECTX.CAB: CD Check, CD Check
D:\DirectX7\SETUPAPI.DLL: CD Check

Tracks and Write Offsets:
    DAT:

<rom name="S_GOLFD3D.bin" size="59820768" crc="55094842" md5="afd05e816d97ff9a8cc8317996de28b9" sha1="4e51410f95dc58743520807c68a75033b6d3d458" />

    Cuesheet:

FILE "S_GOLFD3D.bin" BINARY
  TRACK 01 MODE1/2352
    INDEX 01 00:00:00

    Write Offset: -12
Common Disc Info:
    Title: Standard 1500: The Hanafuda
    Foreign Title (Non-latin): Standard 1500: The 花札
    Disc Number / Letter: (OPTIONAL)
    Disc Title: ST15HANA
    System: IBM PC Compatible
    Media Type: CD-ROM
    Category: Games
    Region: Japan
    Languages: Japanese
    Disc Serial: SD-000785

    Ringcode Information:
        Mastering Code (laser branded/etched): (REQUIRED, IF EXISTS)
        Mastering SID Code: (REQUIRED, IF EXISTS)
        Data-Side Mould SID Code: IFPI 4843
        Label-Side Mould SID Code: (REQUIRED, IF EXISTS)
        Additional Mould: (REQUIRED, IF EXISTS)
        Toolstamp or Mastering Code (engraved/stamped): (REQUIRED, IF EXISTS)
    Barcode: 4 944076 000785
    Error Count: 0
    Comments: [T:ISBN] (OPTIONAL)
    Contents: (OPTIONAL)

Version and Editions:
    Version: (REQUIRED, IF EXISTS)
    Edition/Release: Standard 1500 (year 1999)

Extras:
    Primary Volume Descriptor (PVD):

0320 : 20 20 20 20 20 20 20 20  20 20 20 20 20 31 39 39                199
0330 : 39 30 37 30 38 31 38 30  34 33 30 36 31 00 30 30   9070818043061.00
0340 : 30 30 30 30 30 30 30 30  30 30 30 30 30 30 00 30   00000000000000.0
0350 : 30 30 30 30 30 30 30 30  30 30 30 30 30 30 30 00   000000000000000.
0360 : 30 30 30 30 30 30 30 30  30 30 30 30 30 30 30 30   0000000000000000
0370 : 00 01 00 00 00 00 00 00  00 00 00 00 00 00 00 00   ................

Copy Protection:
    Copy Protection: None found

Tracks and Write Offsets:
    DAT:

<rom name="ST15HANA.bin" size="11682384" crc="e38908af" md5="a662a52d3acbb6ce9bf970ceb0cd4f2a" sha1="fe666c67c9962619ab81f8fb44e77d91aa1f7b09" />

    Cuesheet:

CATALOG 0000000000000
FILE "ST15HANA.bin" BINARY
  TRACK 01 MODE1/2352
    INDEX 01 00:00:00

    Write Offset: 0
Common Disc Info:
    Title: SUPERHANAFUDA
    Foreign Title (Non-latin): (OPTIONAL)
    Disc Number / Letter: (OPTIONAL)
    Disc Title: SUPERHANAFUDA
    System: IBM PC Compatible
    Media Type: CD-ROM
    Category: Games
    Region: Japan
    Languages: Japanese
    Disc Serial: MKW-021

    Ringcode Information:
        Mastering Code (laser branded/etched): (REQUIRED, IF EXISTS)
        Mastering SID Code: (REQUIRED, IF EXISTS)
        Data-Side Mould SID Code: (REQUIRED, IF EXISTS)
        Label-Side Mould SID Code: (REQUIRED, IF EXISTS)
        Additional Mould: (REQUIRED, IF EXISTS)
        Toolstamp or Mastering Code (engraved/stamped): (REQUIRED, IF EXISTS)
    Barcode: (OPTIONAL)
    Error Count: 0
    Comments: [T:ISBN] (OPTIONAL)
    Contents: (OPTIONAL)

Version and Editions:
    Version: (REQUIRED, IF EXISTS)
    Edition/Release: Original (VERIFY THIS)

Extras:
    Primary Volume Descriptor (PVD):

0320 : 20 20 20 20 20 20 20 20  20 20 20 20 20 31 39 39                199
0330 : 39 30 34 33 30 31 36 35  31 30 33 30 30 DC 31 39   9043016510300.19
0340 : 39 39 30 34 33 30 31 36  35 31 30 33 30 30 DC 30   99043016510300.0
0350 : 30 30 30 30 30 30 30 30  30 30 30 30 30 30 30 00   000000000000000.
0360 : 30 30 30 30 30 30 30 30  30 30 30 30 30 30 30 30   0000000000000000
0370 : 00 01 00 00 00 00 00 00  00 00 00 00 00 00 00 00   ................

Copy Protection:
    Copy Protection:

D:\AUTORUN.EXE: CD Check
D:\DATA1.CAB: CD Check
D:\_SYS1.CAB: CD Check

Tracks and Write Offsets:
    DAT:

<rom name="SUPERHANAFUDA.bin" size="3321024" crc="ee0162d5" md5="d521aa71b33a2c2fc0f789fe109dca98" sha1="a0171a714d218aabbc1d900f5a31039f002c3274" />

    Cuesheet:

CATALOG 0000000000000
FILE "SUPERHANAFUDA.bin" BINARY
  TRACK 01 MODE1/2352
    FLAGS DCP
    INDEX 01 00:00:00

    Write Offset: 0
Common Disc Info:
    Title: Hanafuda
    Foreign Title (Non-latin): 花札
    Disc Number / Letter: (OPTIONAL)
    Disc Title: V_HANA
    System: IBM PC Compatible
    Media Type: CD-ROM
    Category: Games
    Region: Japan
    Languages: Japanese
    Disc Serial: RTH-104-1

    Ringcode Information:
        Mastering Code (laser branded/etched): (REQUIRED, IF EXISTS)
        Mastering SID Code: (REQUIRED, IF EXISTS)
        Data-Side Mould SID Code: IFPI 9A09
        Label-Side Mould SID Code: IFPI LF41
        Additional Mould: (REQUIRED, IF EXISTS)
        Toolstamp or Mastering Code (engraved/stamped): (REQUIRED, IF EXISTS)
    Barcode: (OPTIONAL)
    Error Count: 0
    Comments: SPINE: RTH-104
    Contents: (OPTIONAL)

Version and Editions:
    Version: 1
    Edition/Release: Original (1480JPY range)

Extras:
    Primary Volume Descriptor (PVD):

0320 : 20 20 20 20 20 20 20 20  20 20 20 20 20 32 30 30                200
0330 : 31 30 35 32 39 32 30 31  39 34 35 33 32 00 30 30   1052920194532.00
0340 : 30 30 30 30 30 30 30 30  30 30 30 30 30 30 00 30   00000000000000.0
0350 : 30 30 30 30 30 30 30 30  30 30 30 30 30 30 30 00   000000000000000.
0360 : 30 30 30 30 30 30 30 30  30 30 30 30 30 30 30 30   0000000000000000
0370 : 00 01 00 00 00 00 00 00  00 00 00 00 00 00 00 00   ................

Copy Protection:
    Copy Protection: D:\DirectX5\DirectX\DXINFO.EXE: CD Check

Tracks and Write Offsets:
    DAT:

<rom name="V_HANA.bin" size="54453504" crc="ade13693" md5="b3f00ea98d2a5e9f936fceb5f961f5fe" sha1="91a8af2a8f43cc21ee696e657115414147207939" />

    Cuesheet:

FILE "V_HANA.bin" BINARY
  TRACK 01 MODE1/2352
    INDEX 01 00:00:00

    Write Offset: -12
Common Disc Info:
    Title: バリュー花札2
    Foreign Title (Non-latin): Value Hanafuda 2
    Disc Number / Letter: (OPTIONAL)
    Disc Title: バリュー花札2
    System: IBM PC Compatible
    Media Type: CD-ROM
    Category: Games
    Region: Japan
    Languages: Japanese
    Disc Serial: VAHF-02

    Ringcode Information:
        Mastering Code (laser branded/etched): (REQUIRED, IF EXISTS)
        Mastering SID Code: (REQUIRED, IF EXISTS)
        Data-Side Mould SID Code: IFPI 4011
        Label-Side Mould SID Code: (REQUIRED, IF EXISTS)
        Additional Mould: (REQUIRED, IF EXISTS)
        Toolstamp or Mastering Code (engraved/stamped): (REQUIRED, IF EXISTS)
    Barcode: 4 539464 000807
    Error Count: 0
    Comments: [T:ISBN] (OPTIONAL)
    Contents: (OPTIONAL)

Version and Editions:
    Version: (REQUIRED, IF EXISTS)
    Edition/Release: Value range (2002)

Extras:
    Primary Volume Descriptor (PVD):

0320 : 20 20 20 20 20 20 20 20  20 20 20 20 20 32 30 30                200
0330 : 31 31 31 31 36 31 31 31  34 30 30 30 30 DC 32 30   1111611140000.20
0340 : 30 31 31 31 31 36 31 31  31 34 30 30 30 30 DC 30   01111611140000.0
0350 : 30 30 30 30 30 30 30 30  30 30 30 30 30 30 30 00   000000000000000.
0360 : 30 30 30 30 30 30 30 30  30 30 30 30 30 30 30 30   0000000000000000
0370 : 00 01 00 00 00 00 00 00  00 00 00 00 00 00 00 00   ................

Copy Protection:
    Copy Protection:

D:\Autorun.exe: CD Check
D:\_sys1.cab: CD Check
D:\data1.cab: CD Check

Tracks and Write Offsets:
    DAT:

<rom name="バリュー花札2.bin" size="5240256" crc="c5dc9a2b" md5="13764c81aebf1b7fb1b30c8709411589" sha1="20d54c9bd5dbde8d87779c0eb548f0cef272a0f6" />

    Cuesheet:

FILE "バリュー花札2.bin" BINARY
  TRACK 01 MODE1/2352
    INDEX 01 00:00:00

    Write Offset: -22
Common Disc Info:
    Title: Challenge Price 498 Hanafuda
    Foreign Title (Non-latin): Challenge Price 498花札
    Disc Number / Letter: (OPTIONAL)
    Disc Title: Challenge Price 498花札
    System: IBM PC Compatible
    Media Type: CD-ROM
    Category: Games
    Region: Japan
    Languages: Japanese
    Disc Serial: 498HF-01

    Ringcode Information:
        Mastering Code (laser branded/etched): (REQUIRED, IF EXISTS)
        Mastering SID Code: (REQUIRED, IF EXISTS)
        Data-Side Mould SID Code: IFPI 4011
        Label-Side Mould SID Code: (REQUIRED, IF EXISTS)
        Additional Mould: (REQUIRED, IF EXISTS)
        Toolstamp or Mastering Code (engraved/stamped): (REQUIRED, IF EXISTS)
    Barcode: 4 539464 000890
    Error Count: 0
    Comments: [T:ISBN] (OPTIONAL)
    Contents: (OPTIONAL)

Version and Editions:
    Version: (REQUIRED, IF EXISTS)
    Edition/Release: Original

Extras:
    Primary Volume Descriptor (PVD):

0320 : 20 20 20 20 20 20 20 20  20 20 20 20 20 32 30 30                200
0330 : 32 30 36 31 31 31 32 30  30 30 35 30 30 DC 32 30   2061112000500.20
0340 : 30 32 30 36 31 31 31 32  30 30 30 35 30 30 DC 30   02061112000500.0
0350 : 30 30 30 30 30 30 30 30  30 30 30 30 30 30 30 00   000000000000000.
0360 : 30 30 30 30 30 30 30 30  30 30 30 30 30 30 30 30   0000000000000000
0370 : 00 01 00 00 00 00 00 00  00 00 00 00 00 00 00 00   ................

Copy Protection:
    Copy Protection:

D:\_sys1.cab: CD Check
D:\data1.cab: CD Check

Tracks and Write Offsets:
    DAT:

<rom name="498花札.bin" size="4624032" crc="f6358169" md5="85a0665f7113299b0ff8b38c42c5a25c" sha1="0dd12ced491f9bb51d6087563eda1ba080c0e8bf" />

    Cuesheet:

FILE "498花札.bin" BINARY
  TRACK 01 MODE1/2352
    INDEX 01 00:00:00

    Write Offset: -22

Verified non-working dumps, will redo when I get a new drive:

Common Disc Info:
    Title: EVA HANA
    Foreign Title (Non-latin): シンジと愉快な仲間たち セカンド花札インパクト
    Disc Number / Letter: (OPTIONAL)
    Disc Title: EVA HANA
    System: IBM PC Compatible
    Media Type: CD-ROM
    Category: Games
    Region: Japan
    Languages: Japanese
    Disc Serial: V-990070J

    Ringcode Information:
        Mastering Code (laser branded/etched): (REQUIRED, IF EXISTS)
        Mastering SID Code: IFPI L262
        Data-Side Mould SID Code: IFPI 7603
        Label-Side Mould SID Code: (REQUIRED, IF EXISTS)
        Additional Mould: (REQUIRED, IF EXISTS)
        Toolstamp or Mastering Code (engraved/stamped): (REQUIRED, IF EXISTS)
    Barcode: 4 984841 014609
    Error Count: 3
    Comments: [T:ISBN] (OPTIONAL)
    Contents: (OPTIONAL)

Version and Editions:
    Version: 1
    Edition/Release: Original

Extras:
    Primary Volume Descriptor (PVD):

0320 : 20 20 20 20 20 20 20 20  20 20 20 20 20 31 39 39                199
0330 : 39 30 35 31 30 31 37 31  31 31 35 30 30 00 31 39   9051017111500.19
0340 : 39 39 30 35 31 30 31 37  31 31 31 36 30 30 00 00   99051017111600..
0350 : 00 00 00 00 00 00 00 00  00 00 00 00 00 00 00 00   ................
0360 : 00 00 00 00 00 00 00 00  00 00 00 00 00 00 00 00   ................
0370 : 00 01 00 00 00 00 00 00  00 00 00 00 00 00 00 00   ................

Copy Protection:
    Copy Protection:

D:\_SYS1.CAB: CD Check
D:\EVA_HANA\EVA_HANA.EXE: CD Check

Tracks and Write Offsets:
    DAT:

<rom name="EVA_HANA.bin" size="142632336" crc="1399ec3f" md5="6e24375f8cf121765a235b954b2aa99c" sha1="e14c903070b2110cab7cfccb97a12029b8885fd7" />

    Cuesheet:

FILE "EVA_HANA.bin" BINARY
  TRACK 01 MODE1/2352
    INDEX 01 00:00:00

    Write Offset: 2