Common Disc Info:
    Title: River City Girls Original Game Soundtrack
    Foreign Title (Non-latin): 
    Disc Number / Letter: 
    Disc Title: 
    System: Audio CD
    Media Type: CD-ROM
    Category: Audio
    Region: USA
    Disc Serial: 

    Ringcode Information:
        Mastering Code (laser branded/etched): MDI2625      DISC MAKERS
        Mastering SID Code:  lZ74
        Data-Side Mould SID Code: 
        Label-Side Mould SID Code: 
        Additional Mould: 
        Toolstamp or Mastering Code (engraved/stamped): 
    Barcode: 
    Error Count:
    Comments:  Included with the Limited Run release of River City Girls.
    Contents: 

Version and Editions:
    Version: 
    Edition/Release: Original

Extras:
    Primary Volume Descriptor (PVD): Disc has no PVD

Tracks and Write Offsets:
    DAT:

<rom name="River City Girls Original Game Soundtrack (Track 01).bin" size="17682336" crc="f4b2a9cd" md5="88139311341d1c281f629994aa3cbb00" sha1="c1a3b95ac74f807d9703d6a51f1f4fca15b85e85" />
<rom name="River City Girls Original Game Soundtrack (Track 02).bin" size="5908224" crc="8913f329" md5="a515f773f0188859a52deb6f23646d5a" sha1="923cc8729e2e4befc468afbabff8677a2886c515" />
<rom name="River City Girls Original Game Soundtrack (Track 03).bin" size="22976688" crc="077e0f34" md5="4a9f7dee4839171abc6740943497e00d" sha1="8b9f23cea54a8e4b540dff8c45d225fc2d09b776" />
<rom name="River City Girls Original Game Soundtrack (Track 04).bin" size="24032736" crc="a34da924" md5="250cda9767166060309c8b877cf09723" sha1="17857965a76d4d1e1d591a8eba9631de29223c5e" />
<rom name="River City Girls Original Game Soundtrack (Track 05).bin" size="32810400" crc="9e7adcf9" md5="88ff5babf86ac9a53a027ad6ebc83dc2" sha1="e94595997882013194b71fb8de1d88eb84605818" />
<rom name="River City Girls Original Game Soundtrack (Track 06).bin" size="44793840" crc="10eb2030" md5="c89ba0e38cc5e71ec011af1e8fa9adbc" sha1="5b334863f8d82583d01d9467a2289ae0315c097f" />
<rom name="River City Girls Original Game Soundtrack (Track 07).bin" size="22532160" crc="d436af85" md5="84eb2168abf344f7992700c87cba2cf3" sha1="2386082614329fd849c463763d52c0a167489cd1" />
<rom name="River City Girls Original Game Soundtrack (Track 08).bin" size="22781472" crc="0af0fd7b" md5="1011d004f13d81c019ddfb32d128e469" sha1="7bd3ff69a23d38f0622eef897420a79b7e580601" />
<rom name="River City Girls Original Game Soundtrack (Track 09).bin" size="32810400" crc="4975cb4d" md5="d9d48a177fcb85f2f0b8e100ee8d7a95" sha1="8d0a4b8d60519df86641a9750826a70f2d6d8d48" />
<rom name="River City Girls Original Game Soundtrack (Track 10).bin" size="23275392" crc="bfbc2fc3" md5="a5d054741a7450de47244487fe1d4447" sha1="5c0c0cb8f8cdb0d3ecc1664932e850ea9bf77c91" />
<rom name="River City Girls Original Game Soundtrack (Track 11).bin" size="13493424" crc="724c28ae" md5="31bda67790f32d65e241f33e4fd2a616" sha1="5df3981a3a825d20eb28b916c1a664303606098c" />
<rom name="River City Girls Original Game Soundtrack (Track 12).bin" size="19646256" crc="a7845549" md5="42121a9f86604450a97b08c03384fb61" sha1="2c034e6acdc85204b4020c0a28909ebf2cc550f1" />

    Cuesheet:

TITLE "River City Girls"
PERFORMER "WayForward"
FILE "River City Girls Original Game Soundtrack (Track 01).bin" BINARY
  TRACK 01 AUDIO
    ISRC QMAAK1982551
    TITLE "We're the River City Girls (Intro)"
    PERFORMER "WayForward"
    INDEX 01 00:00:00
FILE "River City Girls Original Game Soundtrack (Track 02).bin" BINARY
  TRACK 02 AUDIO
    ISRC QMAAK1982552
    TITLE "Menu 1"
    PERFORMER "WayForward"
    INDEX 01 00:00:00
FILE "River City Girls Original Game Soundtrack (Track 03).bin" BINARY
  TRACK 03 AUDIO
    ISRC QMAAK1982553
    TITLE "Detention"
    PERFORMER "WayForward"
    INDEX 01 00:00:00
FILE "River City Girls Original Game Soundtrack (Track 04).bin" BINARY
  TRACK 04 AUDIO
    ISRC QMAAK1982554
    TITLE "Knock Out"
    PERFORMER "WayForward"
    INDEX 01 00:00:00
FILE "River City Girls Original Game Soundtrack (Track 05).bin" BINARY
  TRACK 05 AUDIO
    ISRC QMAAK1982555
    TITLE "Misuzu Boss"
    PERFORMER "WayForward"
    INDEX 01 00:00:00
FILE "River City Girls Original Game Soundtrack (Track 06).bin" BINARY
  TRACK 06 AUDIO
    ISRC QMAAK1982556
    TITLE "The Hunt"
    PERFORMER "WayForward"
    INDEX 01 00:00:00
FILE "River City Girls Original Game Soundtrack (Track 07).bin" BINARY
  TRACK 07 AUDIO
    ISRC QMAAK1982557
    TITLE "Dollar Signs"
    PERFORMER "WayForward"
    INDEX 01 00:00:00
FILE "River City Girls Original Game Soundtrack (Track 08).bin" BINARY
  TRACK 08 AUDIO
    ISRC QMAAK1982558
    TITLE "Don't Give A"
    PERFORMER "WayForward"
    INDEX 01 00:00:00
FILE "River City Girls Original Game Soundtrack (Track 09).bin" BINARY
  TRACK 09 AUDIO
    ISRC QMAAK1982559
    TITLE "Abobo Boss"
    PERFORMER "WayForward"
    INDEX 01 00:00:00
FILE "River City Girls Original Game Soundtrack (Track 10).bin" BINARY
  TRACK 10 AUDIO
    ISRC QMAAK1982560
    TITLE "Azukay"
    PERFORMER "WayForward"
    INDEX 01 00:00:00
FILE "River City Girls Original Game Soundtrack (Track 11).bin" BINARY
  TRACK 11 AUDIO
    ISRC QMAAK1982561
    TITLE "Shop 5"
    PERFORMER "WayForward"
    INDEX 01 00:00:00
FILE "River City Girls Original Game Soundtrack (Track 12).bin" BINARY
  TRACK 12 AUDIO
    ISRC QMAAK1982562
    TITLE "Can't Quit the RCG (End Credits)"
    PERFORMER "WayForward"
    INDEX 01 00:00:00

    Write Offset: 0

https://cdn.discordapp.com/attachments/ … ndtrack.7z

@iR0b0t: while trying to add this disc i've received this error: "Error parsing cuesheet in row 6.". Maybe it was because of a special character or something else from the cue file? I think that this should be fixed as soon as possible.

http://redump.org/disc/66942/

I did add it, taking the submission info from this topic.

The error was due to displacement of ISRC tag.

I will ask sarami to change the order.

PX-760A (+30), PX-W4824TA (+98), GSA-H42L (+667), GDR-8164B (+102), SH-D162D (+6), SOHD-167T (+12)

iR0b0t wrote:

I did add it, taking the submission info from this topic.

The error was due to displacement of ISRC tag.

I will ask sarami to change the order.

Ok, thank you!
Topic unsticked and moved to the History for Dumps section.

http://forum.redump.org/post/75285/#p75285

Can LastCat or somebody else dump a disc containing cdtext so we can confirm to sarami that the changes are working, please.

PX-760A (+30), PX-W4824TA (+98), GSA-H42L (+667), GDR-8164B (+102), SH-D162D (+6), SOHD-167T (+12)