Common Disc Info:
    Title: Dracula: Music Collection
    Foreign Title (Non-latin): 悪魔城ドラキュラミュージック・コレクション
    Disc Number / Letter:
    Disc Title:
    System: Audio CD
    Media Type: CD-ROM
    Category: Audio
    Region: Japan
    Languages:
    Disc Serial:  VX010-J1

    Ringcode Information:
        Mastering Code (laser branded/etched):  VX010-J1- 2F   V
        Mastering SID Code:  IFPI L232
        Data-Side Mould SID Code:  IFPI4111
        Label-Side Mould SID Code: 
        Additional Mould:  24
        Toolstamp or Mastering Code (engraved/stamped): 
    Barcode:
    Error Count:
    Comments:
    Contents:

Version and Editions:
    Version: 
    Edition/Release: Original

Extras:
    Primary Volume Descriptor (PVD): Disc has no PVD

Tracks and Write Offsets:
    DAT:

<rom name="Dracula Music Collection (Track 01).bin" size="68701920" crc="4330eec4" md5="3c073abfac247dbc0f9e80f39f7099c8" sha1="e7cd470976b333934648336683d76ef73967cf80" />
<rom name="Dracula Music Collection (Track 02).bin" size="16600416" crc="d27692e9" md5="0cbad78e4386767854ad24b57aa3599c" sha1="5de2b0fc157d671dfb06bc2dca340f7182e8885d" />
<rom name="Dracula Music Collection (Track 03).bin" size="63555744" crc="4c237c5d" md5="47045ec8934e10ca5fd8433eab5ff26c" sha1="20505f5cb688a57ac55b75640cd4adff60d133d1" />
<rom name="Dracula Music Collection (Track 04).bin" size="41251728" crc="f5f79b35" md5="b68d76346dd8c4e269ba571a91aeb23c" sha1="8030f2feeace094fcf2214c153f392c9fb9dd631" />
<rom name="Dracula Music Collection (Track 05).bin" size="54883920" crc="df9eb21b" md5="7b0bcb49f8ffbcd77dbaa7ae00e31ca1" sha1="87bab0facd9c65cec2f68accbc1804e8e85408d1" />
<rom name="Dracula Music Collection (Track 06).bin" size="41550432" crc="c484dead" md5="c62b532731855faf94ab8e4c9ad8808b" sha1="80c5c82003a204b371574cdeb5ca3ddd197a541c" />
<rom name="Dracula Music Collection (Track 07).bin" size="45541776" crc="f59c10a4" md5="3d00322f36d08eb1833d331b71004f5b" sha1="4b8605e0cbf691e2fc4824ca36c9a82d14f47ec8" />
<rom name="Dracula Music Collection (Track 08).bin" size="82719840" crc="6885a335" md5="2a9ad037238337f15bb7a3b2d79b517e" sha1="92cc69229df4d23d1c759c560406ee640b958d12" />
<rom name="Dracula Music Collection (Track 09).bin" size="31164000" crc="48c12b2f" md5="318fb8c6d89bd11a1c9fa739eb19311a" sha1="f565328b621a8bf4810d38198d2af06242287faa" />
<rom name="Dracula Music Collection (Track 10).bin" size="56426832" crc="d22e8d1b" md5="3ede1a5fdee775535a0fce0af0f8e5f1" sha1="804d8d233fe2b386cd86a6d644203f8a4a91bd4d" />
<rom name="Dracula Music Collection (Track 11).bin" size="57374688" crc="3438226e" md5="557d2f25fab550db13fe101cc2df12a3" sha1="a5614e868fc4965a9d85ec3292d0ee93978d8b40" />
<rom name="Dracula Music Collection (Track 12).bin" size="36578304" crc="20583728" md5="496fad3e6f6088bfa9728ca41b2412a8" sha1="bc1d6f98f223c20e621757452527926249dfcc67" />
<rom name="Dracula Music Collection (Track 13).bin" size="70124880" crc="1c3ca905" md5="cef7bf2e3675ac937b6bdf1d6be56399" sha1="0e5a204de2d2751d0ff03ea06868209feac3fc6e" />
<rom name="Dracula Music Collection (Track 14).bin" size="34809600" crc="a3910e39" md5="510967e814a805a91f2538e3f2eb5b02" sha1="4527a3376fd4e84db008c7030b9be6ee68cbabac" />
<rom name="Dracula Music Collection (Track 15).bin" size="41905584" crc="92309bf6" md5="35d74ecb749314c75d3bc898f7650f96" sha1="a157597373fad185d2277bfb2ac94f6733b53260" />
<rom name="Dracula Music Collection (Track 16).bin" size="35785680" crc="81169cd5" md5="7e4bc3ab8eaf6f6d8c3cd3d188ed9ef9" sha1="a0069cbb9d73475ad202fd345391e710d27ffafd" />

    Cuesheet:

CATALOG 0000000000000
FILE "Dracula Music Collection (Track 01).bin" BINARY
  TRACK 01 AUDIO
    INDEX 00 00:00:00
    INDEX 01 00:00:37
FILE "Dracula Music Collection (Track 02).bin" BINARY
  TRACK 02 AUDIO
    INDEX 00 00:00:00
    INDEX 01 00:00:49
FILE "Dracula Music Collection (Track 03).bin" BINARY
  TRACK 03 AUDIO
    INDEX 00 00:00:00
    INDEX 01 00:00:29
FILE "Dracula Music Collection (Track 04).bin" BINARY
  TRACK 04 AUDIO
    INDEX 00 00:00:00
    INDEX 01 00:00:74
FILE "Dracula Music Collection (Track 05).bin" BINARY
  TRACK 05 AUDIO
    INDEX 01 00:00:00
FILE "Dracula Music Collection (Track 06).bin" BINARY
  TRACK 06 AUDIO
    INDEX 01 00:00:00
FILE "Dracula Music Collection (Track 07).bin" BINARY
  TRACK 07 AUDIO
    INDEX 00 00:00:00
    INDEX 01 00:00:69
FILE "Dracula Music Collection (Track 08).bin" BINARY
  TRACK 08 AUDIO
    INDEX 00 00:00:00
    INDEX 01 00:01:11
FILE "Dracula Music Collection (Track 09).bin" BINARY
  TRACK 09 AUDIO
    INDEX 00 00:00:00
    INDEX 01 00:00:24
FILE "Dracula Music Collection (Track 10).bin" BINARY
  TRACK 10 AUDIO
    INDEX 00 00:00:00
    INDEX 01 00:00:29
FILE "Dracula Music Collection (Track 11).bin" BINARY
  TRACK 11 AUDIO
    INDEX 01 00:00:00
FILE "Dracula Music Collection (Track 12).bin" BINARY
  TRACK 12 AUDIO
    INDEX 00 00:00:00
    INDEX 01 00:00:51
FILE "Dracula Music Collection (Track 13).bin" BINARY
  TRACK 13 AUDIO
    INDEX 00 00:00:00
    INDEX 01 00:01:24
FILE "Dracula Music Collection (Track 14).bin" BINARY
  TRACK 14 AUDIO
    INDEX 00 00:00:00
    INDEX 01 00:00:49
FILE "Dracula Music Collection (Track 15).bin" BINARY
  TRACK 15 AUDIO
    INDEX 00 00:00:00
    INDEX 01 00:01:62
FILE "Dracula Music Collection (Track 16).bin" BINARY
  TRACK 16 AUDIO
    INDEX 01 00:00:00

    Write Offset: 0

https://cdn.discordapp.com/attachments/ … lection.7z

You should apply an additional -294 offset correction as stated in the current entry, use the "/a -294" key for DIC.

F1ReB4LL wrote:

You should apply an additional -294 offset correction as stated in the current entry, use the "/a -294" key for DIC.

Why does this disc need to use this trick?

fuzzball wrote:
F1ReB4LL wrote:

You should apply an additional -294 offset correction as stated in the current entry, use the "/a -294" key for DIC.

Why does this disc need to use this trick?

Because 2 different prints are known, the first was dumped as 0 (as usual), another needs the -294 offset to match the entry (it's pointless to add different prints of the same disc as separate entries, since the whole disc contents is shifted).

F1ReB4LL wrote:

Because 2 different prints are known, the first was dumped as 0 (as usual), another needs the -294 offset to match the entry (it's pointless to add different prints of the same disc as separate entries, since the whole disc contents is shifted).

Is this unique to audio CD?

https://cdn.discordapp.com/attachments/ … udio_CD.7z

New dump logs with offset corrected