1 (edited by wiggy2k 2019-12-03 21:46:22)

Common Disc Info:
    Title: Castlevania ~Music Collection~
    System: Audio CD
    Media Type: CD-ROM
    Category: Bonus Discs
    Region: UK / Europe
    Languages: ?
    Disc Serial: VX100

    Ringcode Information:
        Mastering Code (laser branded/etched): A0100230288-0101<tab>12<tab>DADC Austria
        Mastering SID Code: IFPI L552
        Data-Side Mould SID Code: IFPI 94Y6
        Label-Side Mould SID Code:
        Additional Mould:
        Toolstamp or Mastering Code (engraved/stamped): B1
    Barcode: 4 988602 060652
    Error Count: 0
    Comments:
    Contents:

Version and Editions:
    Version:
    Edition/Release: Bundled with Sony PlayStation Game http://redump.org/disc/1130/

Extras:
    Primary Volume Descriptor (PVD): Disc has no PVD

Tracks and Write Offsets:
    DAT:

<rom name="Castlevania-Audio (Track 01).bin" size="68612544" crc="8a8c7f26" md5="b353389f137e445e4762465ecc2a1c1c" sha1="bb6207653a0af6357b57c7d722ce35b61f9c159a" />
<rom name="Castlevania-Audio (Track 02).bin" size="16600416" crc="a1488745" md5="2154de46fca932923254cc069fca7d59" sha1="376a3ccc9c7798adbd08e2ee8544c995aa7b105d" />
<rom name="Castlevania-Audio (Track 03).bin" size="63555744" crc="307965a3" md5="0db07373ca1ba278d2a8c649afeac95f" sha1="c855cc45afeddef3b0f49474cc81300b0e20b71a" />
<rom name="Castlevania-Audio (Track 04).bin" size="41254080" crc="eae2401c" md5="eb66d515b26b21d52c7844b5ec5d1af8" sha1="c7fd219a614727c644f6ce0e45ecec5d68011c91" />
<rom name="Castlevania-Audio (Track 05).bin" size="54883920" crc="ce190c71" md5="4dc5b0d08c02a7286cea3cd11fdefc2d" sha1="2f74905a4bd0f06cee937e8bd157aaa349719237" />
<rom name="Castlevania-Audio (Track 06).bin" size="41548080" crc="5c7b8fe4" md5="a0505dc1575fdf02387cb56527b4fe4d" sha1="c4446f9850ee53f148c8f66a454280530ca45882" />
<rom name="Castlevania-Audio (Track 07).bin" size="45541776" crc="5b055d72" md5="5607be9d2749378f9d016a1408abb0a9" sha1="7b65a1f8455c6e86174ffeafbf59995648ab22bd" />
<rom name="Castlevania-Audio (Track 08).bin" size="82719840" crc="0abb3c67" md5="2cff3415a1708aba9802029a0ee60336" sha1="64488b356ae3779e6984c6b0569f522d7ec6946a" />
<rom name="Castlevania-Audio (Track 09).bin" size="31164000" crc="043bf9ae" md5="c08b84c9d46778a35f1ae5269c14e069" sha1="b8b662c536c20fc5fc4bb91797b76d0a9ecf99b8" />
<rom name="Castlevania-Audio (Track 10).bin" size="56429184" crc="96364ed2" md5="a8f5f2831e29f0f19a1dc0ba429d1121" sha1="707c6574fff8618f99522c98d9085e57a1047a2b" />
<rom name="Castlevania-Audio (Track 11).bin" size="57372336" crc="fec33755" md5="161eceed77297c5a041e48b1eabfce52" sha1="979b482c6d7540f47fe8085f3a2c4e9707717974" />
<rom name="Castlevania-Audio (Track 12).bin" size="36578304" crc="59b04321" md5="8497e5c3330aac5aad3f707b9c22d09d" sha1="42311d5ed48baa10d014f483abffa8f6a2c4bcfc" />
<rom name="Castlevania-Audio (Track 13).bin" size="70124880" crc="34d659dc" md5="ead22cf7d3e65261baea2b45b40314f0" sha1="662c57e52e17265f1056228f1e25eab46e34c2b5" />
<rom name="Castlevania-Audio (Track 14).bin" size="34809600" crc="8bd35cbb" md5="3481810cedeeeafadf097456b36ceb49" sha1="170ef8707846137b346661b5256fdd29223d22fa" />
<rom name="Castlevania-Audio (Track 15).bin" size="41907936" crc="e9b7f41d" md5="b0ae61e54626bef339d5c335a981acb8" sha1="2315c8b39ffa684ca32aa85124bfe927d6e21487" />
<rom name="Castlevania-Audio (Track 16).bin" size="35785680" crc="b37ac27b" md5="d5de2cd6c1b08a8b39a4fd5daf72cdef" sha1="b373bca728ca59fffeab0d0f53ab46f602d59c35" />

    Cuesheet:

CATALOG 0000000000000
FILE "Castlevania-Audio (Track 01).bin" BINARY
  TRACK 01 AUDIO
    INDEX 01 00:00:00
FILE "Castlevania-Audio (Track 02).bin" BINARY
  TRACK 02 AUDIO
    INDEX 00 00:00:00
    INDEX 01 00:00:50
FILE "Castlevania-Audio (Track 03).bin" BINARY
  TRACK 03 AUDIO
    INDEX 00 00:00:00
    INDEX 01 00:00:30
FILE "Castlevania-Audio (Track 04).bin" BINARY
  TRACK 04 AUDIO
    INDEX 00 00:00:00
    INDEX 01 00:01:00
FILE "Castlevania-Audio (Track 05).bin" BINARY
  TRACK 05 AUDIO
    INDEX 01 00:00:00
FILE "Castlevania-Audio (Track 06).bin" BINARY
  TRACK 06 AUDIO
    INDEX 01 00:00:00
FILE "Castlevania-Audio (Track 07).bin" BINARY
  TRACK 07 AUDIO
    INDEX 00 00:00:00
    INDEX 01 00:00:70
FILE "Castlevania-Audio (Track 08).bin" BINARY
  TRACK 08 AUDIO
    INDEX 00 00:00:00
    INDEX 01 00:01:12
FILE "Castlevania-Audio (Track 09).bin" BINARY
  TRACK 09 AUDIO
    INDEX 00 00:00:00
    INDEX 01 00:00:25
FILE "Castlevania-Audio (Track 10).bin" BINARY
  TRACK 10 AUDIO
    INDEX 00 00:00:00
    INDEX 01 00:00:30
FILE "Castlevania-Audio (Track 11).bin" BINARY
  TRACK 11 AUDIO
    INDEX 01 00:00:00
FILE "Castlevania-Audio (Track 12).bin" BINARY
  TRACK 12 AUDIO
    INDEX 00 00:00:00
    INDEX 01 00:00:52
FILE "Castlevania-Audio (Track 13).bin" BINARY
  TRACK 13 AUDIO
    INDEX 00 00:00:00
    INDEX 01 00:01:25
FILE "Castlevania-Audio (Track 14).bin" BINARY
  TRACK 14 AUDIO
    INDEX 00 00:00:00
    INDEX 01 00:00:50
FILE "Castlevania-Audio (Track 15).bin" BINARY
  TRACK 15 AUDIO
    INDEX 00 00:00:00
    INDEX 01 00:01:63
FILE "Castlevania-Audio (Track 16).bin" BINARY
  TRACK 16 AUDIO
    INDEX 01 00:00:00

    Write Offset: 0




Logs: https://mega.nz/#!vhcBkCSK!oX3l_JX0ktny … 7kra-ptaF4

tracklist and notes should be taken from:
https://vgmdb.net/album/17520