Common Disc Info:
    Title: Last Resort
    Foreign Title (Non-latin):  ラスト・リゾート
    Disc Number / Letter: 
    Disc Title: 
    System: SNK Neo Geo CD
    Media Type: CD-ROM
    Category: Games
    Region: Japan
    Languages: Japanese
    Disc Serial:  NGCD-024

    Ringcode Information:
        Mastering Code (laser branded/etched):  NGCD-024 MT
        Mastering SID Code: 
        Data-Side Mould SID Code: 
        Label-Side Mould SID Code: 
        Additional Mould:  U
        Toolstamp or Mastering Code (engraved/stamped):  B01
    Barcode:  T4964808 50036 9
    EXE/Build Date: 1994-08-06
    Error Count: 0
    Comments: 
    Contents: 

Version and Editions:
    Version: 
    Edition/Release: Original

Extras:
    Primary Volume Descriptor (PVD):

0320 : 20 20 20 20 20 20 20 20  20 20 20 20 20 31 39 39                199
0330 : 34 30 38 30 37 32 32 33  31 33 33 30 30 00 31 39   4080722313300.19
0340 : 39 34 30 38 30 37 32 32  33 31 33 33 30 30 00 30   94080722313300.0
0350 : 30 30 30 30 30 30 30 30  30 30 30 30 30 30 30 00   000000000000000.
0360 : 31 39 39 34 30 38 30 37  32 32 33 31 33 33 30 30   1994080722313300
0370 : 00 01 00 00 00 00 00 00  00 00 00 00 00 00 00 00   ................

Tracks and Write Offsets:
    DAT:

<rom name="Last Resort (Track 01).bin" size="12801936" crc="a7f11b12" md5="d0b0a7c53f7d5070cc9389dcb4fe38e6" sha1="bcc4f2651ca698e84e3c8fe393121b0262ee5d86" />
<rom name="Last Resort (Track 02).bin" size="25627392" crc="7b55634e" md5="01df0b89454f9c83d9bfdcf6c141e049" sha1="0f2a3edbb709d6b4ef345b5ae461969e450a2470" />
<rom name="Last Resort (Track 03).bin" size="21005712" crc="e8f93573" md5="4c90525e7b3358d5ac4ae447499b4f4f" sha1="c456a95a8b541ed0d92648af9183c4cc58c61216" />
<rom name="Last Resort (Track 04).bin" size="40362672" crc="cbdd5b45" md5="2ceedb79fccd8b4bedbb297cf96ccab6" sha1="5674a42b76194b27adaf9a93ba98a6c6853f0bc2" />
<rom name="Last Resort (Track 05).bin" size="32709264" crc="ff46e5fe" md5="fd870c58f07315a4082df7b358e03e85" sha1="56c3e87fdeeee1de89b7c040dead316a78936ff5" />
<rom name="Last Resort (Track 06).bin" size="38309376" crc="7aac88a3" md5="74dbc214024cc4a06d6fa800ad0d2a19" sha1="d807e2801723443ae4749ca3736ab14afb0b889d" />
<rom name="Last Resort (Track 07).bin" size="2627184" crc="6d190692" md5="7822d8cf53ad7bcef7a735427e8d8538" sha1="a48895bed16b4626e1ce0578c95ae54af7b4e262" />
<rom name="Last Resort (Track 08).bin" size="4457040" crc="b2c26296" md5="6ae3669018017928b676009219f72012" sha1="d69543cef8569113e2bdef340d9087881e5d4e8e" />
<rom name="Last Resort (Track 09).bin" size="4807488" crc="b9d93154" md5="fdb333dd55f817c57838b6701f6a9870" sha1="bee3b2b8395186736b4f9b0bb4a1e37d5205df15" />
<rom name="Last Resort (Track 10).bin" size="2984688" crc="efc005d8" md5="27fba2ea6fec437fbcd7d564198d66cc" sha1="41f01af319ff360d89c28cb183516be9e09ce7b7" />
<rom name="Last Resort (Track 11).bin" size="25930800" crc="261d0a4b" md5="191d139891a87e396a15a3ea549db181" sha1="12c823a1309bb19a686d41274edecfb383d00082" />
<rom name="Last Resort (Track 12).bin" size="32857440" crc="0350ab4b" md5="ea0e46a38bcbf2c9a2e9d2e638236cb8" sha1="efada55f04ddc2d392ce58abadee23805df60bb7" />
<rom name="Last Resort (Track 13).bin" size="34687296" crc="9a2d8abf" md5="17761875d8182483ec76626c0617cd27" sha1="8eb4d8f1505ce9baba804b8505586e92f953d472" />
<rom name="Last Resort (Track 14).bin" size="5978784" crc="fe738c91" md5="3075401a3315ea408194c6969b83690b" sha1="a53ef28bf64fe00661c79a1bc4d01cb4982d3adc" />
<rom name="Last Resort (Track 15).bin" size="30733584" crc="527ee7b3" md5="661d971dac83e6ab998da25a002aa84d" sha1="739db919fb2ebff97942e84ff4c9abf64b480805" />
<rom name="Last Resort (Track 16).bin" size="27922944" crc="8117dc4c" md5="1a597e70b73fbeea89ee27df2c3f75d9" sha1="01a92a90f3d11b803c37ab611079433e3b1682e5" />
<rom name="Last Resort (Track 17).bin" size="8716512" crc="a5b422ab" md5="95f3bb256910fece254763647c3a4943" sha1="f5e9466acde26dc92d36e54ef97f3d3697727976" />
<rom name="Last Resort (Track 18).bin" size="39346608" crc="65a5f7ae" md5="fdd469bbe9ce2ea6639c46811c03422b" sha1="dbce1577a099e907762c43e65c05fb5a05834809" />
<rom name="Last Resort (Track 19).bin" size="11378976" crc="fd07b088" md5="12327ba439d2b0d3063d3613e1d40037" sha1="bc34a6c6dfbda261a9acdff8db7a98a6c567aad0" />
<rom name="Last Resort (Track 20).bin" size="3238704" crc="b8ff593d" md5="b9b73ceba0d15a7250e772ada3e8217b" sha1="38dac2a93d09bcb818ca483c04a6ff0243952002" />

    Cuesheet:

FILE "Last Resort (Track 01).bin" BINARY
  TRACK 01 MODE1/2352
    FLAGS DCP
    INDEX 01 00:00:00
FILE "Last Resort (Track 02).bin" BINARY
  TRACK 02 AUDIO
    FLAGS DCP
    INDEX 00 00:00:00
    INDEX 01 00:03:00
FILE "Last Resort (Track 03).bin" BINARY
  TRACK 03 AUDIO
    FLAGS DCP
    INDEX 01 00:00:00
FILE "Last Resort (Track 04).bin" BINARY
  TRACK 04 AUDIO
    FLAGS DCP
    INDEX 01 00:00:00
FILE "Last Resort (Track 05).bin" BINARY
  TRACK 05 AUDIO
    FLAGS DCP
    INDEX 01 00:00:00
FILE "Last Resort (Track 06).bin" BINARY
  TRACK 06 AUDIO
    FLAGS DCP
    INDEX 01 00:00:00
FILE "Last Resort (Track 07).bin" BINARY
  TRACK 07 AUDIO
    FLAGS DCP
    INDEX 01 00:00:00
FILE "Last Resort (Track 08).bin" BINARY
  TRACK 08 AUDIO
    FLAGS DCP
    INDEX 01 00:00:00
FILE "Last Resort (Track 09).bin" BINARY
  TRACK 09 AUDIO
    FLAGS DCP
    INDEX 01 00:00:00
FILE "Last Resort (Track 10).bin" BINARY
  TRACK 10 AUDIO
    FLAGS DCP
    INDEX 01 00:00:00
FILE "Last Resort (Track 11).bin" BINARY
  TRACK 11 AUDIO
    FLAGS DCP
    INDEX 01 00:00:00
FILE "Last Resort (Track 12).bin" BINARY
  TRACK 12 AUDIO
    FLAGS DCP
    INDEX 01 00:00:00
FILE "Last Resort (Track 13).bin" BINARY
  TRACK 13 AUDIO
    FLAGS DCP
    INDEX 01 00:00:00
FILE "Last Resort (Track 14).bin" BINARY
  TRACK 14 AUDIO
    FLAGS DCP
    INDEX 01 00:00:00
FILE "Last Resort (Track 15).bin" BINARY
  TRACK 15 AUDIO
    FLAGS DCP
    INDEX 01 00:00:00
FILE "Last Resort (Track 16).bin" BINARY
  TRACK 16 AUDIO
    FLAGS DCP
    INDEX 01 00:00:00
FILE "Last Resort (Track 17).bin" BINARY
  TRACK 17 AUDIO
    FLAGS DCP
    INDEX 01 00:00:00
FILE "Last Resort (Track 18).bin" BINARY
  TRACK 18 AUDIO
    FLAGS DCP
    INDEX 01 00:00:00
FILE "Last Resort (Track 19).bin" BINARY
  TRACK 19 AUDIO
    FLAGS DCP
    INDEX 01 00:00:00
FILE "Last Resort (Track 20).bin" BINARY
  TRACK 20 AUDIO
    FLAGS DCP
    INDEX 01 00:00:00

    Write Offset: 2

https://cdn.discordapp.com/attachments/ … _RESORT.7z