Another one of those weird Photo-CDs with a 3DO serial

Common Disc Info:
    Title: Zippo Collection Manual
    Foreign Title (Non-latin): ?
    System: Photo CD
    Media Type: CD-ROM
    Category: Multimedia
    Region: Japan
    Languages: not checked
    Disc Serial: FZ-YPE0701

    Ringcode Information:
        Mastering Code (laser branded/etched): FZ-YPE0701 MT<tab>B01
        Mastering SID Code: IFPI L262
        Additional Mould: U
    Barcode: 4 984824 066564
    Error Count: 0
    Comments:
    Contents:

Version and Editions:
    Version:
    Edition/Release: Original

Extras:
    Primary Volume Descriptor (PVD):

0320 : 20 20 20 20 20 20 20 20  20 20 20 20 20 31 39 39                199
0330 : 34 31 31 31 35 31 31 32  37 30 39 30 30 24 31 39   4111511270900$19
0340 : 39 34 31 31 31 35 31 31  32 37 30 39 30 30 24 30   94111511270900$0
0350 : 30 30 30 30 30 30 30 30  30 30 30 30 30 30 30 00   000000000000000.
0360 : 31 39 39 34 31 31 31 35  31 31 32 37 30 39 30 30   1994111511270900
0370 : 24 01 00 00 00 00 00 00  00 00 00 00 00 00 00 00   $...............

Tracks and Write Offsets:
    DAT:

<rom name="Zippo (Track 1).bin" size="710304" crc="49c744ba" md5="326bd661f0c43a71181e02ef8eff70e7" sha1="6e6343081f9c0ab0508aa2be8bbbb3519ec1ba67" />
<rom name="Zippo (Track 2).bin" size="159912480" crc="5e61ac49" md5="ac9edbf2044b0c29bd16388de5d22e39" sha1="6d0fa55c694f7eb7f3ce6bd3c684cd0e4ab98e99" />
<rom name="Zippo (Track 3).bin" size="354204144" crc="8b0d0eee" md5="a15d966222b1cf8d7455d70cc6fd1b41" sha1="678cc02edf8efd5a976f5e58b8b1b97cbd139ef0" />

    Cuesheet:

FILE "Zippo (Track 1).bin" BINARY
  TRACK 01 MODE2/2352
    INDEX 01 00:00:00
FILE "Zippo (Track 2).bin" BINARY
  TRACK 02 MODE2/2352
    INDEX 00 00:00:00
    INDEX 01 00:02:00
FILE "Zippo (Track 3).bin" BINARY
  TRACK 03 AUDIO
    INDEX 00 00:00:00
    INDEX 01 00:03:00

    Write Offset: 2

Logs:  https://mega.nz/#!ClVhiIIb!WTCkAPIexMbh … UR7GxiWhaQ

non-Latin title is:

smiley, small smiley, cross, hyphen... etc etc.

see picture attached.

also i don't know where "Mono CD Series Vol.1" belongs.

Post's attachments

Zippo.png 1.11 mb, file has never been downloaded. 

You don't have the permssions to download the attachments of this post.

non latin title:   ジッポーライターの世界