Title: Atsumare! Guru Guru Onsen (Taikenban w/o Manual)
    Foreign Title (Non-latin): (OPTIONAL)
    Disc Number / Letter: (OPTIONAL)
    Disc Title: ATSUMARE GURU GURU ONSEN TAIKENBAN
    System: Sega Dreamcast
    Media Type: GD-ROM
    Category: Games
    Region: J
    Languages: J
    Disc Serial: 610-7351

    Ringcode Information:
        Mastering Code (laser branded/etched): 610-7351-0153 3 A1
        Mastering SID Code: IFPI L155
        Data-Side Mould SID Code: IFPI 28S8
        Label-Side Mould SID Code: (REQUIRED, IF EXISTS)
        Additional Mould: (REQUIRED, IF EXISTS)
        Toolstamp or Mastering Code (engraved/stamped): (REQUIRED, IF EXISTS)
    Barcode: NOT FOR SALE
    EXE/Build Date: (REQUIRED)
    Error Count: 0
    Comments: (OPTIONAL)
    Contents:
Pri Box Code: 610-7351
Alt Box Code: 673-00610
Pri Disc Code: 610-7351
Alt Disc Code: 673-00609

Version and Editions:
    Version: V1.001
    Edition/Release: TAIKENBAN

Extras:
    Primary Volume Descriptor (PVD):

0320 : 20 20 20 20 20 20 20 20  20 20 20 20 20 31 39 39                199
0330 : 39 30 37 32 31 32 32 33  36 35 39 30 30 24 31 39   9072122365900$19
0340 : 39 39 30 37 32 37 31 33  31 30 33 35 30 30 24 32   99072713103500$2
0350 : 30 30 38 30 37 32 31 32  32 33 36 35 39 30 30 24   008072122365900$
0360 : 31 39 39 39 30 37 32 31  32 32 33 36 35 39 30 30   1999072122365900
0370 : 24 01 00 00 00 00 00 00  00 00 00 00 00 00 00 00   $...............

Tracks and Write Offsets:
    DAT:

<rom name="ONSEN (Track 1).bin" size="1470000" crc="2aadb6d7" md5="6b599ced39a8e949449d7d243ffb7130" sha1="50a33639a742a83ac3a19ea89e18943c47f429c1" />
<rom name="ONSEN (Track 2).bin" size="2088576" crc="1859ea65" md5="652a31166a58b8f933e8a924e7c88780" sha1="0ecd537e42946f3e74c80c9fcb8d0bccccfc96f1" />
<rom name="ONSEN (Track 3).bin" size="1185760800" crc="c2e71479" md5="2a8fdd8d917cd223167728e6b790bed2" sha1="405b4776f715e07402986a55d2c1078bcb6df4b4" />

    Cuesheet:

FILE "ONSEN (Track 1).bin" BINARY
  TRACK 01 MODE1/2352
    INDEX 01 00:00:00
FILE "ONSEN (Track 2).bin" BINARY
  TRACK 02 AUDIO
    INDEX 00 00:00:00
    INDEX 01 00:02:00
FILE "ONSEN (Track 3).bin" BINARY
  TRACK 03 MODE1/2352
    INDEX 01 00:00:00

    Write Offset: 13

Post's attachments

ATSUMARE GURU GURU ONSEN TAIKENBAN - V1.001.7z 40.51 kb, 1 downloads since 2019-11-24 

You don't have the permssions to download the attachments of this post.