Name: Web Browser
Region: US
Languages Unchecked.
    Ringcode Information:
        Mastering Code (laser branded/etched): *12S*    51027    A    B
        Mastering SID Code: IFPI L433
        Data-Side Mould SID Code: IFPI 7492
        Label-Side Mould SID Code: (REQUIRED, IF EXISTS)
        Additional Mould: (REQUIRED, IF EXISTS)
        Toolstamp or Mastering Code (engraved/stamped): B1
    Barcode: N/A
    Error Count: 0


Version and Editions:
    Version: 1.125

Extras:

Tracks and Write Offsets:
    DAT:

<rom name="BROWSER21 (Track 1).bin" size="1342992" crc="ff983b44" md5="2c0ed2cef84b93187ef7f484f812a116" sha1="204266c30cbede2ea18265082b95d15cc7198e14" />
<rom name="BROWSER21 (Track 2).bin" size="1519392" crc="21c7ae30" md5="c81b05f5ce417ea2c2f4e58ceae71cdd" sha1="af642277839e450f26a7b9f93ae2510578e2bb58" />
<rom name="BROWSER21 (Track 3).bin" size="1169865984" crc="e8e9a86b" md5="73340ed89f4ba2d0b7464b04549f9a64" sha1="9ef97abe57bf1ec9d82c38d13905924cf13164c3"/>
<rom name="BROWSER21 (Track 4).bin" size="1166592" crc="6bc55214" md5="4abf6058d28447b03f6b8071ff9440a3" sha1="260d369112685d249aa43b67ca7dbc6cd12e6673"/>
<rom name="BROWSER21 (Track 5).bin" size="14728224" crc="38be35bd" md5="e58eaefe76fffc21ee66b8c1b2720d6e" sha1="c4f43f19a52188f55c3fcdfc1235daadcea43249"/>

    Cuesheet:

FILE "BROWSER21 (Track 1).bin" BINARY
  TRACK 01 MODE1/2352
    INDEX 01 00:00:00
FILE "BROWSER21 (Track 2).bin" BINARY
  TRACK 02 AUDIO
    INDEX 00 00:00:00
    INDEX 01 00:02:00
FILE "Track 03.bin" BINARY
  TRACK 03 MODE1/2352
    INDEX 01 00:00:00
FILE "Track 04.bin" BINARY
  TRACK 04 AUDIO
    INDEX 00 00:00:00
    INDEX 01 00:02:00
FILE "Track 05.bin" BINARY
  TRACK 05 MODE1/2352
    INDEX 00 00:00:00
    INDEX 01 00:03:00


    Write Offset: -522

Dumping PSP:  PSP-1000, 6.61 PRO-C ][ Can dump GCN, Wii, Wii U, DS, DSi, 3DS, Switch, PSP, PS2, Xbox, Xbox 360, CD-ROM, DVD-ROM, and GD-ROM

Track 03 likely has an error in the dump that ice.exe couldn't detect. Please try to redump the disc.

EccEdc.exe (included with DiscImageCreator) might be able to detect the error.

There was a detected error with EccEdc, so I'll redump once I'm finished with my pending submissions.

Dumping PSP:  PSP-1000, 6.61 PRO-C ][ Can dump GCN, Wii, Wii U, DS, DSi, 3DS, Switch, PSP, PS2, Xbox, Xbox 360, CD-ROM, DVD-ROM, and GD-ROM

Thanks. Please add the ice log to your post once you finish redumping. It has the combined offset which is needed to get the HDA offset for the database.

Also, please post your newly submitted Elder Scrolls Oblivion (Xbox 360) disc on the forum with all logs attached. That disc should match http://redump.org/disc/57172/ so one of the dumps must be incorrect.