CD1:

Common Disc Info:
    Title: LOOM
    Foreign Title (Non-latin):
    Disc Number / Letter: 1
    Disc Title:
    System: Fujitsu FM Towns Marty
    Media Type: CD-ROM
    Category: Games
    Region: Japan
    Languages:
    Disc Serial: HMC-111-1
    Ringcode Information:
        Mastering Code (laser branded/etched): HMC-111-1<tab>1A2<tab>C<tab>13
    Barcode: T4988618018517
    Error Count: 0
    Comments: other numbers on disc  TSC090     A2760080
    Contents: (OPTIONAL)

Version and Editions:
    Version: (REQUIRED, IF EXISTS)
    Edition/Release: Original (VERIFY THIS)

Extras:
    Primary Volume Descriptor (PVD):

0320 : 20 20 20 20 20 20 20 20  20 20 20 20 20 31 39 39                199
0330 : 31 30 33 31 38 32 30 31  36 30 33 30 30 00 31 39   1031820160300.19
0340 : 39 31 30 33 31 38 32 30  32 30 34 32 30 30 00 30   91031820204200.0
0350 : 30 30 30 30 30 30 30 30  30 30 30 30 30 30 30 00   000000000000000.
0360 : 30 30 30 30 30 30 30 30  30 30 30 30 30 30 30 30   0000000000000000
0370 : 00 01 00 00 00 00 00 00  00 00 00 00 00 00 00 00   ................

Tracks and Write Offsets:
    DAT:

<rom name="LOOMCD1 (Track 01).bin" size="20815200" crc="f724b1c6" md5="1ec4be65d0b020ca7941eddb88fef140" sha1="f23ad9842ecadf1c52c51d840baf06ae50518d5c" />
<rom name="LOOMCD1 (Track 02).bin" size="28106400" crc="fae70f1d" md5="58770edcee19d207236037b45244caaa" sha1="85eb6df1f8da0e1efc64ac4274bb7f71818c8e4e" />
<rom name="LOOMCD1 (Track 03).bin" size="23014320" crc="91d9abfa" md5="6947c2160d4ddf3cc6d1881ac4162fd7" sha1="6b31cdf89309442eb5b9e524dd160719bc2ca819" />
<rom name="LOOMCD1 (Track 04).bin" size="32892720" crc="3a42d949" md5="b02c68938ad60077f028842d3b81d0dd" sha1="4c5f7ff197fa6f0df52886314935a8b6ec8af474" />
<rom name="LOOMCD1 (Track 05).bin" size="15840720" crc="69519c3c" md5="24b8e88b08f6a97f88a7821588e2159a" sha1="c8e4d200ad0daa2a91d260f36650092959531cce" />
<rom name="LOOMCD1 (Track 06).bin" size="30752400" crc="8d5d56e0" md5="6f41d7ad1c21a92d8f78724f9d8b8d5c" sha1="b2b4c12b2ebb8bcf62abd274beba40748c712a09" />
<rom name="LOOMCD1 (Track 07).bin" size="17745840" crc="4181f3cb" md5="ca8eb3c986a90bc28e3d6240a3ea323f" sha1="341f8dc2da94f1cb4257201ca21ac2c4fa5755e8" />
<rom name="LOOMCD1 (Track 08).bin" size="57024240" crc="1488beff" md5="cc475bf09c0a28b35710ead5c5c4c30e" sha1="707629918b1911fbfe3a1825317b043232b75eb9" />
<rom name="LOOMCD1 (Track 09).bin" size="48004320" crc="8dc24b25" md5="abf1ea757005f6135b6e326418994a3f" sha1="e28462c39e048c12bc734d1c8323f731f7536778" />
<rom name="LOOMCD1 (Track 10).bin" size="29388240" crc="1d4aa0d9" md5="bfe17417345117b26e81b6313bb4342c" sha1="672e1aafc67e6b67e786b8e9055633f01256373d" />
<rom name="LOOMCD1 (Track 11).bin" size="26177760" crc="99cb69be" md5="0316b31edda34a44736af209dc67ad4d" sha1="1ea0a6aed12348884720ccfddb861f7bebf0624c" />
<rom name="LOOMCD1 (Track 12).bin" size="35397600" crc="0efe34bf" md5="0202d95fbc14a794808c6fa09db2a80b" sha1="4bf5864e98e45a6e1bd0cad1648c3352a33e37df" />
<rom name="LOOMCD1 (Track 13).bin" size="16652160" crc="014f1489" md5="968e7663dd300547119a510671557317" sha1="840f7c127ddefc299340c7ac041f9a0b69c1fac5" />
<rom name="LOOMCD1 (Track 14).bin" size="31822560" crc="9c363269" md5="e851871c63881d4783354f40672e397f" sha1="a72f7c4a32ccff0abd04123b7f9d01559b5f4a26" />
<rom name="LOOMCD1 (Track 15).bin" size="16746240" crc="69a94e73" md5="2c70aef9ec1a745bce7d9f3cfc72a087" sha1="6291c733d9613bcd435ca5afcaacb962f4dedbe5" />
<rom name="LOOMCD1 (Track 16).bin" size="56130480" crc="1981427d" md5="1ae4bed08cc005ea77d6b40104b0b503" sha1="e6138581d61781f11edbe1732b033c27e55ca222" />
<rom name="LOOMCD1 (Track 17).bin" size="49568400" crc="bbf820bc" md5="1f9c9bcfa836d765a7973163bfaafd19" sha1="473456b71bbf248079460747d2c7fbe135854fc1" />
<rom name="LOOMCD1 (Track 18).bin" size="6397440" crc="d796e415" md5="31cea2f2078ed4dd3429f9b801fffa62" sha1="2520da05b2859dd94c65dd33650b2d5f051aec39" />
<rom name="LOOMCD1 (Track 19).bin" size="14970480" crc="48ba2192" md5="4ac8d7a3aca6463e2fc0fc2d09072a8b" sha1="34c1800b0c1d5c6f33996544010ec76ae9a06ca8" />

    Cuesheet:

FILE "LOOMCD1 (Track 01).bin" BINARY
  TRACK 01 MODE1/2352
    INDEX 01 00:00:00
FILE "LOOMCD1 (Track 02).bin" BINARY
  TRACK 02 AUDIO
    INDEX 00 00:00:00
    INDEX 01 00:04:25
FILE "LOOMCD1 (Track 03).bin" BINARY
  TRACK 03 AUDIO
    INDEX 00 00:00:00
    INDEX 01 00:05:35
FILE "LOOMCD1 (Track 04).bin" BINARY
  TRACK 04 AUDIO
    INDEX 00 00:00:00
    INDEX 01 00:02:35
FILE "LOOMCD1 (Track 05).bin" BINARY
  TRACK 05 AUDIO
    INDEX 00 00:00:00
    INDEX 01 00:03:60
FILE "LOOMCD1 (Track 06).bin" BINARY
  TRACK 06 AUDIO
    INDEX 00 00:00:00
    INDEX 01 00:06:25
FILE "LOOMCD1 (Track 07).bin" BINARY
  TRACK 07 AUDIO
    INDEX 00 00:00:00
    INDEX 01 00:07:45
FILE "LOOMCD1 (Track 08).bin" BINARY
  TRACK 08 AUDIO
    INDEX 00 00:00:00
    INDEX 01 00:03:65
FILE "LOOMCD1 (Track 09).bin" BINARY
  TRACK 09 AUDIO
    INDEX 00 00:00:00
    INDEX 01 00:01:35
FILE "LOOMCD1 (Track 10).bin" BINARY
  TRACK 10 AUDIO
    INDEX 00 00:00:00
    INDEX 01 00:04:65
FILE "LOOMCD1 (Track 11).bin" BINARY
  TRACK 11 AUDIO
    INDEX 00 00:00:00
    INDEX 01 00:03:65
FILE "LOOMCD1 (Track 12).bin" BINARY
  TRACK 12 AUDIO
    INDEX 00 00:00:00
    INDEX 01 00:03:50
FILE "LOOMCD1 (Track 13).bin" BINARY
  TRACK 13 AUDIO
    INDEX 00 00:00:00
    INDEX 01 00:03:30
FILE "LOOMCD1 (Track 14).bin" BINARY
  TRACK 14 AUDIO
    INDEX 00 00:00:00
    INDEX 01 00:05:60
FILE "LOOMCD1 (Track 15).bin" BINARY
  TRACK 15 AUDIO
    INDEX 00 00:00:00
    INDEX 01 00:02:00
FILE "LOOMCD1 (Track 16).bin" BINARY
  TRACK 16 AUDIO
    INDEX 00 00:00:00
    INDEX 01 00:02:00
FILE "LOOMCD1 (Track 17).bin" BINARY
  TRACK 17 AUDIO
    INDEX 00 00:00:00
    INDEX 01 00:02:00
FILE "LOOMCD1 (Track 18).bin" BINARY
  TRACK 18 AUDIO
    INDEX 00 00:00:00
    INDEX 01 00:02:30
FILE "LOOMCD1 (Track 19).bin" BINARY
  TRACK 19 AUDIO
    INDEX 00 00:00:00
    INDEX 01 00:03:30

    Write Offset: 301



CD2:


Common Disc Info:
    Title: LOOM
    Foreign Title (Non-latin):
    Disc Number / Letter: 2
    Disc Title: Audio drama /  オーディオドラマ
    System: FMTOWNS
    Media Type: CD-ROM
    Category: Games
    Region: Japan
    Languages:
    Disc Serial: HMC-111-2

    Ringcode Information:
        Mastering Code (laser branded/etched): HMC-111-2<tab>1A1<tab>C<tab>13
    Barcode:  T4988618018517
    Error Count: 0
    Comments: other numbers on disc  TSC090     A2760080
    Contents:

Version and Editions:
    Version:
    Edition/Release: Original

Extras:
    Primary Volume Descriptor (PVD): Disc has no PVD

Tracks and Write Offsets:
    DAT:

<rom name="LOOMCD2 (Track 1).bin" size="327751200" crc="3aeaf878" md5="0527dfacefbf7ce72cbbf563ed0f9506" sha1="568943bfb7afae0db9f6d8846ac9f6b450fed681" />
<rom name="LOOMCD2 (Track 2).bin" size="311346000" crc="642c608a" md5="252f9716ee7a9170f682fe93d5c3a9d2" sha1="0431179ff3ccfdf602b01a4e1895558598ba5402" />
<rom name="LOOMCD2 (Track 3).bin" size="66150000" crc="4044a075" md5="745dd5058ef02a2da327c518a5b2948a" sha1="e2aa1682a945bf07586acc0fa2c49c4dcadbfe2f" />
<rom name="LOOMCD2 (Track 4).bin" size="15170400" crc="f21b0d9f" md5="2dcdd4f5760594cf6c628c36efce6254" sha1="3967583d8e23b1daf9eb0747466a598fd05056c5" />
<rom name="LOOMCD2 (Track 5).bin" size="26283600" crc="156c382d" md5="bf10494bb15d10beaacba87920cc8278" sha1="33dd754f82c0aa1e2bd6fdeb9e1adfcffad84099" />
<rom name="LOOMCD2 (Track 6).bin" size="16228800" crc="095d53b6" md5="6444727f19f72e1050f46ba10b15dc68" sha1="245a136b840213e3d9ae263ba34d7f4fc8a44fc7" />

    Cuesheet:

FILE "LOOMCD2 (Track 1).bin" BINARY
  TRACK 01 AUDIO
    INDEX 01 00:00:00
FILE "LOOMCD2 (Track 2).bin" BINARY
  TRACK 02 AUDIO
    INDEX 00 00:00:00
    INDEX 01 00:03:00
FILE "LOOMCD2 (Track 3).bin" BINARY
  TRACK 03 AUDIO
    INDEX 00 00:00:00
    INDEX 01 00:03:00
FILE "LOOMCD2 (Track 4).bin" BINARY
  TRACK 04 AUDIO
    INDEX 00 00:00:00
    INDEX 01 00:04:00
FILE "LOOMCD2 (Track 5).bin" BINARY
  TRACK 05 AUDIO
    INDEX 00 00:00:00
    INDEX 01 00:04:00
FILE "LOOMCD2 (Track 6).bin" BINARY
  TRACK 06 AUDIO
    INDEX 00 00:00:00
    INDEX 01 00:04:00

    Write Offset: 0

Logs:

https://mega.nz/#!S11lmCbC!UdMBPboQGsLB … 3-Wqe-K1wY