1 (edited by wiggy2k 2019-10-20 02:02:42)

Common Disc Info:
    Title: Super Street Fighter II: The New Challengers
    Foreign Title (Non-latin):  スーパーストリートファイター2
    Disc Number / Letter:
    Disc Title:
    System: Fujitsu FM Towns Marty
    Media Type: CD-ROM
    Category: Games
    Region: Japan
    Languages: Not checked
    Disc Serial: HMF-162

    Ringcode Information:
        Mastering Code (laser branded/etched): 4J13-1
    Barcode: T4976219164184
    Error Count: 0
    Comments:    require 4MB RAM (probably not Marty compatible by default); sold with an adapter for the CPS Fighter joystick controller.
    Contents:

Version and Editions:
    Version: (REQUIRED, IF EXISTS)
    Edition/Release: Original

Extras:
    Primary Volume Descriptor (PVD):

0320 : 20 20 20 20 20 20 20 20  20 20 20 20 20 30 30 30                000
0330 : 30 30 30 30 30 30 30 30  30 30 30 30 30 00 30 30   0000000000000.00
0340 : 30 30 30 30 30 30 30 30  30 30 30 30 30 30 00 30   00000000000000.0
0350 : 30 30 30 30 30 30 30 30  30 30 30 30 30 30 30 00   000000000000000.
0360 : 30 30 30 30 30 30 30 30  30 30 30 30 30 30 30 30   0000000000000000
0370 : 00 01 00 00 00 00 00 00  00 00 00 00 00 00 00 00   ................

Tracks and Write Offsets:
    DAT:

<rom name="SSFII (Track 01).bin" size="17437728" crc="f1c5a1f1" md5="9d581d1795db3db661f0f1ec1ec67090" sha1="cbb85f9bb48c78dee6d03a8f2f224eb48a7e2220" />
<rom name="SSFII (Track 02).bin" size="14112000" crc="32529373" md5="026b1a2412e15f65ae0eb584ce880817" sha1="57697b4345e079cc10a7cdd991bc6a727c241fba" />
<rom name="SSFII (Track 03).bin" size="13582800" crc="678cd157" md5="19228a6df6d273d4bd27ef68845782cc" sha1="1844221c4ee44ae669d9a90e1f4f637d1c590ab2" />
<rom name="SSFII (Track 04).bin" size="13580448" crc="b823d767" md5="dcb6d18c23e1ce924473fc0cb1c288eb" sha1="9721c3822f1097dd9481d0ac04f315044e206a4f" />
<rom name="SSFII (Track 05).bin" size="13582800" crc="9b36506f" md5="089ad4a37d6170a72a36e36cb762c865" sha1="1074c059863759d5d4358a21245e9fb4f772c2ef" />
<rom name="SSFII (Track 06).bin" size="13582800" crc="1301053c" md5="70889dc80b7f694dd9b06069ace88764" sha1="d2da33b61dcb79be3e8f15296619200854ad6f05" />
<rom name="SSFII (Track 07).bin" size="13582800" crc="f6c5730a" md5="b1ab8e23433cf270f11d99102be3a8fa" sha1="b76a6f572d98d5b2e09b56ac168668b61b7ee382" />
<rom name="SSFII (Track 08).bin" size="14112000" crc="aafced2e" md5="1a583a864ae845c9f84dee30b1c44606" sha1="7199824833e0f334e8070203b65e4a2d75a8bb7d" />
<rom name="SSFII (Track 09).bin" size="13582800" crc="62bbb4a8" md5="18e3f4306e425489a83716cf6693aefd" sha1="914515a6f46da1ecf4fdca7c482eee9293907e0d" />
<rom name="SSFII (Track 10).bin" size="13582800" crc="39fb1d65" md5="6d2b83ffa991e9ea6eebe6698e15d5ab" sha1="54c2ec7e97d83296d5667a351778d6f136c8a8a4" />
<rom name="SSFII (Track 11).bin" size="13582800" crc="15e3c499" md5="60acad6fe4e0bc92f560a2d1cd3998ac" sha1="348623a31c27069c9a881ec764904366a6f61eae" />
<rom name="SSFII (Track 12).bin" size="13582800" crc="16974759" md5="6280d5e0efae456af641a68871947853" sha1="999f341df136b58ff534dec71389b2ce3fd89b6d" />
<rom name="SSFII (Track 13).bin" size="15339744" crc="6bdcd7c1" md5="6dc04e25a091d797e5d76e1b12656121" sha1="b9e4f8b4912d188e7bf258c65f1fde4cc12c5870" />
<rom name="SSFII (Track 14).bin" size="13582800" crc="94db4783" md5="0e7d9d32ff61efbddf5b4ae864c9b50c" sha1="0934ba0abdd7c08c0dd8504c094d7ae23c0df2b6" />
<rom name="SSFII (Track 15).bin" size="13582800" crc="02c02566" md5="993535a53afb7adae5189af2a5767a27" sha1="08e28ac195565f99bcc8410ef28ff9c6e0f6f7c5" />
<rom name="SSFII (Track 16).bin" size="13582800" crc="639c1d20" md5="af0fc7ea4933408770e519454db29dfd" sha1="6342412ae595d6290e90a0819b70fe95adb43f50" />
<rom name="SSFII (Track 17).bin" size="13582800" crc="f386b88e" md5="3076bd221aa801c8aff67702d71e3f35" sha1="70e5a020d4e3820cc7c71f9b1b2f2919a2c7eac1" />
<rom name="SSFII (Track 18).bin" size="13768608" crc="84ec5fc4" md5="a90b3982c8b983a593cffcb93e8d6170" sha1="66c12b5366b40e0104084d0e2805d4cf8aa928d6" />
<rom name="SSFII (Track 19).bin" size="6350400" crc="d56baf3d" md5="20172c54715dae8b4b7de58275d9c4fc" sha1="ceb92c09cb6dddbcdab66844a6b251c15a13e905" />
<rom name="SSFII (Track 20).bin" size="11583600" crc="8493b55c" md5="3307eeb7e953895ac94cf9b89a48839a" sha1="50a8de04c9b9a63d9af47e70f2fa6b189d9ad414" />
<rom name="SSFII (Track 21).bin" size="9172800" crc="0fa9d090" md5="f555472f2ed209ad1d690aa35dbc6bf8" sha1="b71956f5cd0e8c0827000589f24a1a9bb8a42412" />
<rom name="SSFII (Track 22).bin" size="5468400" crc="80e5a068" md5="01c14f4b4221c09d487b1a1143ce85f0" sha1="8bbe461ed0ea73430284bb3659a6030274ca45b0" />
<rom name="SSFII (Track 23).bin" size="8288448" crc="e91da35d" md5="a9678495cc626ea356551f52a2669390" sha1="1a461041c15c3a043c4e727d241a275a23a30af3" />
<rom name="SSFII (Track 24).bin" size="7761600" crc="79cb22ce" md5="cec387164e0dea8c895ad246ecb2e99d" sha1="5266a72d90fe7e2b5ed91e7c21cb6dcc979f79c2" />
<rom name="SSFII (Track 25).bin" size="7408800" crc="9d129f3f" md5="181a00f90f8842285b1f14cfd81beb1a" sha1="f7cd435f682806f27a5ab74ffcfe2e8de910b907" />
<rom name="SSFII (Track 26).bin" size="4939200" crc="e9d14d7b" md5="0901f022d8fce4091118de103ae69176" sha1="7ed6a8ef7ec3f0c878e4a8a6dc456c2a68c4bdfc" />
<rom name="SSFII (Track 27).bin" size="8996400" crc="e314dd5b" md5="65aba7dfa65b2f6b0e2b098fc721d853" sha1="5bb39936902015e1ccf6894a497d8f8abbb921dc" />
<rom name="SSFII (Track 28).bin" size="4231248" crc="899aa92d" md5="26d17c1147fe24c0ba85b93aa6605069" sha1="4ae7215698cc368a53e8c7992d893031767645b4" />
<rom name="SSFII (Track 29).bin" size="7408800" crc="3bc15f98" md5="81d93bd4e58e38eb5d744385844eba02" sha1="b907b1d2eea0b2e4fcb2ceeff05add7af598c5e1" />
<rom name="SSFII (Track 30).bin" size="8246112" crc="33d795d3" md5="d872b22e611122fe2a5974062411ff09" sha1="48bd1a316aaebb0012633546fd38c0182ea62704" />
<rom name="SSFII (Track 31).bin" size="7056000" crc="80a67f8e" md5="633e5adfa5aca81f2366e8e6cd641f10" sha1="6548508b4d87efad6b826f0947950248b2cb5a57" />
<rom name="SSFII (Track 32).bin" size="7232400" crc="72d0ed7f" md5="3fa9a0d3e0ce1280870fe5f925cd4ac1" sha1="1c7f2c4286c274b00aa4e486ac6db846dcdaca1e" />
<rom name="SSFII (Track 33).bin" size="10584000" crc="b264b9e5" md5="90af0e4234ee157f4af50534316477ec" sha1="2f93c96c28e1e008a252762c4c54e6bcfda2ba5a" />
<rom name="SSFII (Track 34).bin" size="11995200" crc="a508f909" md5="f3ba3399229e11db0a124563198f5bf4" sha1="94f96567b4dfd71c004f97b46885927a459da9f3" />
<rom name="SSFII (Track 35).bin" size="13227648" crc="9d57fbfa" md5="5cb8848b79cc84949b5b2e2bddaed976" sha1="406fd0c6068fd028f64f783abc0b63da76f8c3ef" />
<rom name="SSFII (Track 36).bin" size="7408800" crc="76a6a9d5" md5="e7c05eeb024fb8c12fbeb83cff5b87ff" sha1="870af549c733dce872cce31f038d1b7db3dc62f3" />
<rom name="SSFII (Track 37).bin" size="4586400" crc="354d3ef9" md5="7d4a21ed06d33b3e1e9d9fbb9acc1456" sha1="70ddf64530741fa033ef660b82ae7b537565652f" />
<rom name="SSFII (Track 38).bin" size="6526800" crc="11592b3a" md5="facac6a9faaaacde7822a64115a1a1ba" sha1="93fc4e283a5bfda664802d9fab157757cabaab0d" />
<rom name="SSFII (Track 39).bin" size="1411200" crc="cfcc1b37" md5="aaf0fbc6ba3fe5fed8da5ead926c9f57" sha1="8cd19ff35699bcea81d6113dbf5d6687524e78af" />
<rom name="SSFII (Track 40).bin" size="1408848" crc="f7dc17a5" md5="0b4da9f071f3202dc7b082e20c5b8906" sha1="5854bbf6e4127b9a6557215472268a6ff008368f" />
<rom name="SSFII (Track 41).bin" size="4762800" crc="10cfe7a6" md5="2c9500d7e8e0d9218fa70409d648d28e" sha1="5443893e288171a7a9cbcb95f16e0a1f820a1de1" />
<rom name="SSFII (Track 42).bin" size="1411200" crc="0f3458bd" md5="53ee26c56c719389b894e92a8295f48e" sha1="6946b058e7b01f046944aa332b170fc475af904d" />
<rom name="SSFII (Track 43).bin" size="1411200" crc="29b98e2d" md5="dc287931c37c865526f023d07b2d0572" sha1="3aebd339b00b6b9bbd477f7ad2add25cd48d3352" />
<rom name="SSFII (Track 44).bin" size="9172800" crc="61fb1dff" md5="970e730f3a62e63773c59fa78abde264" sha1="e866ccc1f9c3829e566d72f9e823e71414f50dc1" />
<rom name="SSFII (Track 45).bin" size="21520800" crc="cc356cd5" md5="a9d3e7f17679bee6fa2a4e4ed43f6d3a" sha1="465b322abac03ed66ed1a67a467b4abfc824931c" />
<rom name="SSFII (Track 46).bin" size="1411200" crc="9ca98d35" md5="6a967917c2946a322be0b5dee3d5c842" sha1="bf05fc703a1717721bc86d2bba7554bbd0bc8deb" />
<rom name="SSFII (Track 47).bin" size="7408800" crc="dcb9f183" md5="3e998f0f2194c93af81beb3d2647a089" sha1="05f8993fa8cf0ffe24342c46539360eb16ce385e" />
<rom name="SSFII (Track 48).bin" size="5997600" crc="936b9553" md5="1e27e5f2bd49eb2680a78bdd0dd10ee1" sha1="63331d905de2c4bedfe0053425d647425458e93e" />

    Cuesheet:

CATALOG 0000000000000
FILE "SSFII (Track 01).bin" BINARY
  TRACK 01 MODE1/2352
    INDEX 01 00:00:00
FILE "SSFII (Track 02).bin" BINARY
  TRACK 02 AUDIO
    INDEX 00 00:00:00
    INDEX 01 00:02:00
FILE "SSFII (Track 03).bin" BINARY
  TRACK 03 AUDIO
    INDEX 00 00:00:00
    INDEX 01 00:02:00
FILE "SSFII (Track 04).bin" BINARY
  TRACK 04 AUDIO
    INDEX 00 00:00:00
    INDEX 01 00:02:00
FILE "SSFII (Track 05).bin" BINARY
  TRACK 05 AUDIO
    INDEX 00 00:00:00
    INDEX 01 00:02:00
FILE "SSFII (Track 06).bin" BINARY
  TRACK 06 AUDIO
    INDEX 00 00:00:00
    INDEX 01 00:02:00
FILE "SSFII (Track 07).bin" BINARY
  TRACK 07 AUDIO
    INDEX 00 00:00:00
    INDEX 01 00:02:00
FILE "SSFII (Track 08).bin" BINARY
  TRACK 08 AUDIO
    INDEX 00 00:00:00
    INDEX 01 00:02:00
FILE "SSFII (Track 09).bin" BINARY
  TRACK 09 AUDIO
    INDEX 00 00:00:00
    INDEX 01 00:02:00
FILE "SSFII (Track 10).bin" BINARY
  TRACK 10 AUDIO
    INDEX 00 00:00:00
    INDEX 01 00:02:00
FILE "SSFII (Track 11).bin" BINARY
  TRACK 11 AUDIO
    INDEX 00 00:00:00
    INDEX 01 00:02:00
FILE "SSFII (Track 12).bin" BINARY
  TRACK 12 AUDIO
    INDEX 00 00:00:00
    INDEX 01 00:02:00
FILE "SSFII (Track 13).bin" BINARY
  TRACK 13 AUDIO
    INDEX 00 00:00:00
    INDEX 01 00:02:00
FILE "SSFII (Track 14).bin" BINARY
  TRACK 14 AUDIO
    INDEX 00 00:00:00
    INDEX 01 00:02:00
FILE "SSFII (Track 15).bin" BINARY
  TRACK 15 AUDIO
    INDEX 00 00:00:00
    INDEX 01 00:02:00
FILE "SSFII (Track 16).bin" BINARY
  TRACK 16 AUDIO
    INDEX 00 00:00:00
    INDEX 01 00:02:00
FILE "SSFII (Track 17).bin" BINARY
  TRACK 17 AUDIO
    INDEX 00 00:00:00
    INDEX 01 00:02:00
FILE "SSFII (Track 18).bin" BINARY
  TRACK 18 AUDIO
    INDEX 00 00:00:00
    INDEX 01 00:02:00
FILE "SSFII (Track 19).bin" BINARY
  TRACK 19 AUDIO
    INDEX 00 00:00:00
    INDEX 01 00:02:00
FILE "SSFII (Track 20).bin" BINARY
  TRACK 20 AUDIO
    INDEX 00 00:00:00
    INDEX 01 00:02:00
FILE "SSFII (Track 21).bin" BINARY
  TRACK 21 AUDIO
    INDEX 00 00:00:00
    INDEX 01 00:02:00
FILE "SSFII (Track 22).bin" BINARY
  TRACK 22 AUDIO
    INDEX 00 00:00:00
    INDEX 01 00:02:00
FILE "SSFII (Track 23).bin" BINARY
  TRACK 23 AUDIO
    INDEX 00 00:00:00
    INDEX 01 00:02:00
FILE "SSFII (Track 24).bin" BINARY
  TRACK 24 AUDIO
    INDEX 00 00:00:00
    INDEX 01 00:02:00
FILE "SSFII (Track 25).bin" BINARY
  TRACK 25 AUDIO
    INDEX 00 00:00:00
    INDEX 01 00:02:00
FILE "SSFII (Track 26).bin" BINARY
  TRACK 26 AUDIO
    INDEX 00 00:00:00
    INDEX 01 00:02:00
FILE "SSFII (Track 27).bin" BINARY
  TRACK 27 AUDIO
    INDEX 00 00:00:00
    INDEX 01 00:02:00
FILE "SSFII (Track 28).bin" BINARY
  TRACK 28 AUDIO
    INDEX 00 00:00:00
    INDEX 01 00:02:00
FILE "SSFII (Track 29).bin" BINARY
  TRACK 29 AUDIO
    INDEX 00 00:00:00
    INDEX 01 00:02:00
FILE "SSFII (Track 30).bin" BINARY
  TRACK 30 AUDIO
    INDEX 00 00:00:00
    INDEX 01 00:02:00
FILE "SSFII (Track 31).bin" BINARY
  TRACK 31 AUDIO
    INDEX 00 00:00:00
    INDEX 01 00:02:00
FILE "SSFII (Track 32).bin" BINARY
  TRACK 32 AUDIO
    INDEX 00 00:00:00
    INDEX 01 00:02:00
FILE "SSFII (Track 33).bin" BINARY
  TRACK 33 AUDIO
    INDEX 00 00:00:00
    INDEX 01 00:02:00
FILE "SSFII (Track 34).bin" BINARY
  TRACK 34 AUDIO
    INDEX 00 00:00:00
    INDEX 01 00:02:00
FILE "SSFII (Track 35).bin" BINARY
  TRACK 35 AUDIO
    INDEX 00 00:00:00
    INDEX 01 00:02:00
FILE "SSFII (Track 36).bin" BINARY
  TRACK 36 AUDIO
    INDEX 00 00:00:00
    INDEX 01 00:02:00
FILE "SSFII (Track 37).bin" BINARY
  TRACK 37 AUDIO
    INDEX 00 00:00:00
    INDEX 01 00:02:00
FILE "SSFII (Track 38).bin" BINARY
  TRACK 38 AUDIO
    INDEX 00 00:00:00
    INDEX 01 00:02:00
FILE "SSFII (Track 39).bin" BINARY
  TRACK 39 AUDIO
    INDEX 00 00:00:00
    INDEX 01 00:02:00
FILE "SSFII (Track 40).bin" BINARY
  TRACK 40 AUDIO
    INDEX 00 00:00:00
    INDEX 01 00:02:00
FILE "SSFII (Track 41).bin" BINARY
  TRACK 41 AUDIO
    INDEX 00 00:00:00
    INDEX 01 00:02:00
FILE "SSFII (Track 42).bin" BINARY
  TRACK 42 AUDIO
    INDEX 00 00:00:00
    INDEX 01 00:02:00
FILE "SSFII (Track 43).bin" BINARY
  TRACK 43 AUDIO
    INDEX 00 00:00:00
    INDEX 01 00:02:00
FILE "SSFII (Track 44).bin" BINARY
  TRACK 44 AUDIO
    INDEX 00 00:00:00
    INDEX 01 00:02:00
FILE "SSFII (Track 45).bin" BINARY
  TRACK 45 AUDIO
    INDEX 00 00:00:00
    INDEX 01 00:02:00
FILE "SSFII (Track 46).bin" BINARY
  TRACK 46 AUDIO
    INDEX 00 00:00:00
    INDEX 01 00:02:00
FILE "SSFII (Track 47).bin" BINARY
  TRACK 47 AUDIO
    INDEX 00 00:00:00
    INDEX 01 00:02:00
FILE "SSFII (Track 48).bin" BINARY
  TRACK 48 AUDIO
    INDEX 00 00:00:00
    INDEX 01 00:02:00

    Write Offset: 0

Logs:   https://mega.nz/#!Do1HCKiC!hZtggQWnzO8B … f8zkKFRD4s