1 (edited by KailoKyra 2019-09-11 23:13:53)

Alley 19 Bowling : https://mega.nz/#F!RVxQma6Y!lfOYYDU4oJF_LWdXsbcIDg

Common Disc Info:
    Title: Alley 19 Bowling
    Foreign Title (Non-latin): 
    Disc Number / Letter: 
    Disc Title: 
    System: IBM PC Compatible
    Media Type: CD-ROM
    Category: Games
    Region: France
    Languages: English
    Disc Serial: DCG 003833

    Ringcode Information:
        Mastering Code (laser branded/etched): GZ LA0431    DCG 003833
        Mastering SID Code: IFPI LD01
        Data-Side Mould SID Code: IFPI T701
        Label-Side Mould SID Code: 
        Additional Mould: 
        Toolstamp or Mastering Code (engraved/stamped): 
    Barcode: 8 715686 003833
    Error Count: 0
    Comments: The title on the french budget release is simply "Bowling 3D"
    Contents: 

Version and Editions:
    Version: 
    Edition/Release: Softkey

Extras:
    Primary Volume Descriptor (PVD):

0320 : 20 20 20 20 20 20 20 20  20 20 20 20 20 31 39 39                199
0330 : 37 31 30 32 37 31 33 33  38 34 35 30 30 00 31 39   7102713384500.19
0340 : 39 37 31 30 32 37 31 33  33 39 31 33 30 30 00 00   97102713391300..
0350 : 00 00 00 00 00 00 00 00  00 00 00 00 00 00 00 00   ................
0360 : 00 00 00 00 00 00 00 00  00 00 00 00 00 00 00 00   ................
0370 : 00 01 00 00 00 00 00 00  00 00 00 00 00 00 00 00   ................

Copy Protection:
    Copy Protection: None found

Tracks and Write Offsets:
    DAT:

<rom name="Alley19 (Track 1).bin" size="149368464" crc="35b0f719" md5="0a8493baf9b4d38d3d2092f178de4123" sha1="4a9469f2438e0745daca09a8786b9187b10fd243" />
<rom name="Alley19 (Track 2).bin" size="45188976" crc="a2dfb5d6" md5="fcfa0af6c3756a2421711c08445a091f" sha1="ef3ef1684e10722c84264e5953adab023b02c53e" />
<rom name="Alley19 (Track 3).bin" size="49770672" crc="7e462f1d" md5="a9ecac8b7fd936556f9da1eda7b3cc4d" sha1="1c1e8161c87d7e36f91797ac60bf3bbcd13f445f" />
<rom name="Alley19 (Track 4).bin" size="50212848" crc="772f71c3" md5="1ed0f0fd4cdf3384cfc6e336073aeba6" sha1="ba1f029751eded9ca8509d965accb67eb0b02fa6" />
<rom name="Alley19 (Track 5).bin" size="52880016" crc="bc811775" md5="05aa3afa748747506fc8504e687e2935" sha1="f52413e61d049d938662ceb679f16e83dd473a0d" />

    Cuesheet:

CATALOG 0000000000000
FILE "Alley19 (Track 1).bin" BINARY
  TRACK 01 MODE1/2352
    INDEX 01 00:00:00
FILE "Alley19 (Track 2).bin" BINARY
  TRACK 02 AUDIO
    INDEX 00 00:00:00
    INDEX 01 00:02:00
FILE "Alley19 (Track 3).bin" BINARY
  TRACK 03 AUDIO
    INDEX 00 00:00:00
    INDEX 01 00:01:74
FILE "Alley19 (Track 4).bin" BINARY
  TRACK 04 AUDIO
    INDEX 00 00:00:00
    INDEX 01 00:01:74
FILE "Alley19 (Track 5).bin" BINARY
  TRACK 05 AUDIO
    INDEX 00 00:00:00
    INDEX 01 00:01:74

    Write Offset: 0