Common Disc Info:
    Title: The 4th Unit 6: Merry-Go-Round
    Foreign Title (Non-latin): MERRYGOROUND
    System: Fujitsu FM Towns Marty
    Media Type: CD-ROM
    Category: Games
    Region: Japan
    Languages: Japanese (not checked)
    Disc Serial: HMB-215

    Ringcode Information:
        Mastering Code (laser branded/etched): HMB-215-1-R1D<tab>V
        Toolstamp or Mastering Code (engraved/stamped): 1:2
    Barcode:
    Error Count: 0
    Comments: (OPTIONAL)
    Contents: (OPTIONAL)

Version and Editions:
    Version:
    Edition/Release: Original (VERIFY THIS)

Extras:
    Primary Volume Descriptor (PVD):

0320 : 20 20 20 20 20 20 20 20  20 20 20 20 20 31 39 39                199
0330 : 30 31 31 32 39 31 35 33  33 35 38 30 30 00 31 39   0112915335800.19
0340 : 39 30 31 32 30 33 30 39  31 36 31 38 30 30 00 30   90120309161800.0
0350 : 30 30 30 30 30 30 30 30  30 30 30 30 30 30 30 00   000000000000000.
0360 : 30 30 30 30 30 30 30 30  30 30 30 30 30 30 30 30   0000000000000000
0370 : 00 01 00 00 00 00 00 00  00 00 00 00 00 00 00 00   ................

Tracks and Write Offsets:
    DAT:

<rom name="TFU6 (Track 1).bin" size="73382400" crc="78fb12bc" md5="abca8d3193900897f9a910120471f1bd" sha1="e655ced2aa9b9c76abf9bbedf16f92a981148ceb" />
<rom name="TFU6 (Track 2).bin" size="5694192" crc="541f8932" md5="ce9349181caaeb81ebae4eba609e0428" sha1="3634ff039fe34ab1a26502fa65a89c4b4c4fd8e2" />
<rom name="TFU6 (Track 3).bin" size="15337392" crc="68b0f570" md5="ad5eb7280688e6e4cf8c8a8654b2b271" sha1="f04bb5f45a6f2cdd02e23fb104eaf0c1bef31376" />
<rom name="TFU6 (Track 4).bin" size="44831472" crc="b688810f" md5="2783e5b1de8f0ae691b107cdb0ae1b25" sha1="025c375604cdf47b88d4ca77efc1f9539c98c2a8" />
<rom name="TFU6 (Track 5).bin" size="31747296" crc="eff037a3" md5="594b6c4a4d9711a655f508260ae6a6ee" sha1="0932eea70e7bb4f919f12f6850b0d8f6c51c5a39" />
<rom name="TFU6 (Track 6).bin" size="49907088" crc="8f081075" md5="dbd7f65584654eeb55495a8aba0be339" sha1="abbde33eef04c73ebcb0ac96566a64f0453fb4e2" />
<rom name="TFU6 (Track 7).bin" size="40581408" crc="8cfa9046" md5="1723e5c01225f6a9b5b0db7786a56dc3" sha1="bceb59b4848c85024eb16fd6ade075c8ba293ea1" />
<rom name="TFU6 (Track 8).bin" size="45482976" crc="ad34c312" md5="2e68f23c0315a1e9c40648c50aeb2b8b" sha1="7d603961bc0f77596ac705436af2a74f42c9dc7f" />

    Cuesheet:

CATALOG 0000000000000
FILE "TFU6 (Track 1).bin" BINARY
  TRACK 01 MODE1/2352
    INDEX 01 00:00:00
FILE "TFU6 (Track 2).bin" BINARY
  TRACK 02 AUDIO
    INDEX 00 00:00:00
    INDEX 01 00:02:00
FILE "TFU6 (Track 3).bin" BINARY
  TRACK 03 AUDIO
    INDEX 00 00:00:00
    INDEX 01 00:03:74
FILE "TFU6 (Track 4).bin" BINARY
  TRACK 04 AUDIO
    INDEX 00 00:00:00
    INDEX 01 00:03:74
FILE "TFU6 (Track 5).bin" BINARY
  TRACK 05 AUDIO
    INDEX 00 00:00:00
    INDEX 01 00:03:74
FILE "TFU6 (Track 6).bin" BINARY
  TRACK 06 AUDIO
    INDEX 00 00:00:00
    INDEX 01 00:03:74
FILE "TFU6 (Track 7).bin" BINARY
  TRACK 07 AUDIO
    INDEX 00 00:00:00
    INDEX 01 00:03:74
FILE "TFU6 (Track 8).bin" BINARY
  TRACK 08 AUDIO
    INDEX 00 00:00:00
    INDEX 01 00:03:74

    Write Offset: 1008

Logs:
https://mega.nz/#!3oFS3CZI!FdlbKWhE3KMG … 8wE7epXxus

wiggy2k wrote:

Toolstamp or Mastering Code (engraved/stamped): 1:2

"12"? Colons in toolstamps were only seen only on Nimbus discs so far.

now that i go to check it's more like 32: or 12:    is so hard to read,
it can wait until i get the scanner set up again.