Logs:   https://mega.nz/#!W1dxGCCY!UMeh1K6xUX3t … Dg9JIahYLs

Common Disc Info:
    Title: Crossed Swords 2
    Foreign Title (Non-latin): クロス・スウオードII
    System: SNK Neo Geo CD
    Media Type: CD-ROM
    Category: Games
    Region: Japan
    Languages: not checked
    Disc Serial: ADCD-102

    Ringcode Information:
        Mastering Code (laser branded/etched): ADCD-102 MT<tab>B01
        Mastering SID Code: IFPI L262
        Data-Side Mould SID Code: IFPI 4422
    Barcode:
    EXE/Build Date:
    Error Count: 0
    Comments: (OPTIONAL)
    Contents: genre: Swords and magic action

Version and Editions:
    Version:
    Edition/Release: Original

Extras:
    Primary Volume Descriptor (PVD):

0320 : 20 20 20 20 20 20 20 20  20 20 20 20 20 31 39 39                199
0330 : 35 30 34 31 33 32 32 30  30 35 38 30 30 A5 31 39   5041322005800.19
0340 : 39 35 30 34 31 33 32 32  30 30 35 38 30 30 A5 30   95041322005800.0
0350 : 30 30 30 30 30 30 30 30  30 30 30 30 30 30 30 00   000000000000000.
0360 : 30 30 30 30 30 30 30 30  30 30 30 30 30 30 30 30   0000000000000000
0370 : 00 01 00 00 00 00 00 00  00 00 00 00 00 00 00 00   ................

Tracks and Write Offsets:
    DAT:

<rom name="CR2CD (Track 01).bin" size="10139472" crc="a1b2684c" md5="b00ce436433384cde93123dc0e34b7ab" sha1="2ece2bc117448c29f003132a7ceb311bcef67ce0" />
<rom name="CR2CD (Track 02).bin" size="6209280" crc="d3a075e0" md5="6fc1a29a41d57ae64e269ee88d47a303" sha1="6382f5604912f170d4223dae00fcbd0a51bbe9e6" />
<rom name="CR2CD (Track 03).bin" size="34071072" crc="58af9452" md5="1aa18d6140758e4fbaac014eaf7171a4" sha1="429485554f4ee4a1eaa950ec8a829c0869bfe32b" />
<rom name="CR2CD (Track 04).bin" size="33984048" crc="2998cd12" md5="ac9e74696cdcf95b88b4678737b5c3cc" sha1="744b992b1072706268570e6872f5ba5c6d4dd21b" />
<rom name="CR2CD (Track 05).bin" size="34056960" crc="28d35c49" md5="daa2321c692bfe17df9cf2ec8177057e" sha1="177606460c681898243a98538a9b5e11cbf3afaf" />
<rom name="CR2CD (Track 06).bin" size="33986400" crc="4207f10f" md5="6503be7f0c49e26fb5904f119d8ac7f7" sha1="3df0059b78119c53a62146b78a1c3b326327f6dd" />
<rom name="CR2CD (Track 07).bin" size="34466208" crc="26256210" md5="c6fcfa092bfebbc37c7d408659d311dc" sha1="c6b707e81ad01d36e9e8da9b7fde7ddbf4ae882f" />
<rom name="CR2CD (Track 08).bin" size="34136928" crc="bf22756e" md5="c5cd2f9551b6256b35c69e237254753e" sha1="59f6c4368dbe7089dc36a6d9b3124186badaa033" />
<rom name="CR2CD (Track 09).bin" size="33817056" crc="a8bc8aca" md5="cfbc0c6fb26f7e1f7bf0b01193613388" sha1="3e6b7d2569e07bb1dd7d17a187e871db4cd7a719" />
<rom name="CR2CD (Track 10).bin" size="34089888" crc="be1b938b" md5="1e9fc8908fb87d188175b8ad849ee960" sha1="2df5aae083d43765362d7574c68b6e3c43c67f25" />
<rom name="CR2CD (Track 11).bin" size="7420560" crc="18ebd3a0" md5="ea08f9f6ca1117ef8eb32ec87e9acd83" sha1="6749837cc595e625de58dc4ca5674167a0e25237" />
<rom name="CR2CD (Track 12).bin" size="3640896" crc="3bed4ff8" md5="bdbbb3f10f1a7bc464e96c0b5476d0d7" sha1="06ad7d365f14b4c7de9a20c43dd40098a036ec34" />
<rom name="CR2CD (Track 13).bin" size="7596960" crc="47f21628" md5="b80e09a4620211789438b0b2742dc354" sha1="c4219e549ac1267df9550ba1c4fec10f4b7c2915" />
<rom name="CR2CD (Track 14).bin" size="4330032" crc="a3cc01f5" md5="dc5f4b8a27c083d9f538a94e4197424f" sha1="33425b8836f71f49ef4956e787367b9f92e7526d" />
<rom name="CR2CD (Track 15).bin" size="33918192" crc="e756f4c3" md5="591e26efea6c68e1466aa34c62a5afcb" sha1="492674847da8a17189ed0d2871b8fb6d8d3cf9c3" />
<rom name="CR2CD (Track 16).bin" size="33951120" crc="ca4582b5" md5="40078842894749d82845cb8b967cd79a" sha1="6af2dc862e4ae1f6f72cd4dfd12144014405d3ad" />
<rom name="CR2CD (Track 17).bin" size="34132224" crc="51e78a61" md5="7475fb8f07854c4d329423500b1dbae9" sha1="b7539c2039eef14d6b1a5eb84414a4561a544047" />
<rom name="CR2CD (Track 18).bin" size="4776912" crc="e4179452" md5="20f673c5408d0411bc55762a54fdb335" sha1="caca10f16d72422862b9deadb6a7c9fbf4d7cdf5" />
<rom name="CR2CD (Track 19).bin" size="33986400" crc="ca815274" md5="28922907ab99e75097d529f7912fa577" sha1="340ecaa26022c6dab633875b0e0476e16a35b8f8" />
<rom name="CR2CD (Track 20).bin" size="25088784" crc="57841c1e" md5="1e991c7ddc7b2747e8a68fbd8b16c097" sha1="16095c82722975963cd9158e99318c9015ad2d64" />
<rom name="CR2CD (Track 21).bin" size="7354704" crc="7c6a0d33" md5="b9fc3d55b39c5771ed75411f755006e7" sha1="16aa2a0ee542ea88ea8214d373ee7e36a8e474a8" />
<rom name="CR2CD (Track 22).bin" size="55217904" crc="8c1e22ab" md5="004fbbc5fff21e5c123cdb13cf305dfc" sha1="9522dd0d37989f3295e21d575982e9f770fc88d9" />
<rom name="CR2CD (Track 23).bin" size="2951760" crc="80169d2a" md5="0fb7c4d9ca00b456ca338712efebd64b" sha1="657edce9f30a7a54f2d362f0e502ef0ba169bf9f" />

    Cuesheet:

FILE "CR2CD (Track 01).bin" BINARY
  TRACK 01 MODE1/2352
    INDEX 01 00:00:00
FILE "CR2CD (Track 02).bin" BINARY
  TRACK 02 AUDIO
    INDEX 00 00:00:00
    INDEX 01 00:02:00
FILE "CR2CD (Track 03).bin" BINARY
  TRACK 03 AUDIO
    INDEX 00 00:00:00
    INDEX 01 00:02:00
FILE "CR2CD (Track 04).bin" BINARY
  TRACK 04 AUDIO
    INDEX 00 00:00:00
    INDEX 01 00:02:00
FILE "CR2CD (Track 05).bin" BINARY
  TRACK 05 AUDIO
    INDEX 00 00:00:00
    INDEX 01 00:02:00
FILE "CR2CD (Track 06).bin" BINARY
  TRACK 06 AUDIO
    INDEX 00 00:00:00
    INDEX 01 00:02:00
FILE "CR2CD (Track 07).bin" BINARY
  TRACK 07 AUDIO
    INDEX 00 00:00:00
    INDEX 01 00:02:00
FILE "CR2CD (Track 08).bin" BINARY
  TRACK 08 AUDIO
    INDEX 00 00:00:00
    INDEX 01 00:02:00
FILE "CR2CD (Track 09).bin" BINARY
  TRACK 09 AUDIO
    INDEX 00 00:00:00
    INDEX 01 00:02:00
FILE "CR2CD (Track 10).bin" BINARY
  TRACK 10 AUDIO
    INDEX 00 00:00:00
    INDEX 01 00:02:00
FILE "CR2CD (Track 11).bin" BINARY
  TRACK 11 AUDIO
    INDEX 00 00:00:00
    INDEX 01 00:02:00
FILE "CR2CD (Track 12).bin" BINARY
  TRACK 12 AUDIO
    INDEX 00 00:00:00
    INDEX 01 00:02:00
FILE "CR2CD (Track 13).bin" BINARY
  TRACK 13 AUDIO
    INDEX 00 00:00:00
    INDEX 01 00:02:00
FILE "CR2CD (Track 14).bin" BINARY
  TRACK 14 AUDIO
    INDEX 00 00:00:00
    INDEX 01 00:02:00
FILE "CR2CD (Track 15).bin" BINARY
  TRACK 15 AUDIO
    INDEX 00 00:00:00
    INDEX 01 00:02:00
FILE "CR2CD (Track 16).bin" BINARY
  TRACK 16 AUDIO
    INDEX 00 00:00:00
    INDEX 01 00:02:00
FILE "CR2CD (Track 17).bin" BINARY
  TRACK 17 AUDIO
    INDEX 00 00:00:00
    INDEX 01 00:02:00
FILE "CR2CD (Track 18).bin" BINARY
  TRACK 18 AUDIO
    INDEX 00 00:00:00
    INDEX 01 00:02:00
FILE "CR2CD (Track 19).bin" BINARY
  TRACK 19 AUDIO
    INDEX 00 00:00:00
    INDEX 01 00:02:00
FILE "CR2CD (Track 20).bin" BINARY
  TRACK 20 AUDIO
    INDEX 00 00:00:00
    INDEX 01 00:02:00
FILE "CR2CD (Track 21).bin" BINARY
  TRACK 21 AUDIO
    INDEX 00 00:00:00
    INDEX 01 00:02:00
FILE "CR2CD (Track 22).bin" BINARY
  TRACK 22 AUDIO
    INDEX 00 00:00:00
    INDEX 01 00:02:00
FILE "CR2CD (Track 23).bin" BINARY
  TRACK 23 AUDIO
    INDEX 00 00:00:00
    INDEX 01 00:02:00

    Write Offset: 2