Optical drive and software used:

Plextor PX-W4824TA + DICUI

Log download:
https://mega.nz/#!ywsiVKpA!zjihvRCpmSWz … fdoPm4jPUs


============
Zenkoku Seifuku Bishoujo Grand Prix Find Love (Japan)
New disc submission has been created.

log:

Common Disc Info:
    Title: Zenkoku Seifuku Bishoujo Grand Prix Find Love
    Foreign Title (Non-latin): 全国制服美少女グランプリ ファインドラブ
    Disc Number / Letter: 1
    Disc Title: (OPTIONAL)
    System: Sega Saturn
    Media Type: CD-ROM
    Category: Games
    Region: Japan
    Languages: Japanese
    Disc Serial: T-34602G

    Ringcode Information:
        Mastering Code (laser branded/etched): T-34602GP-01813-P1C      V
        Mastering SID Code: IFPI L231
        Data-Side Mould SID Code: IFPI4011
        Label-Side Mould SID Code: (REQUIRED, IF EXISTS)
        Additional Mould: (REQUIRED, IF EXISTS)
        Toolstamp or Mastering Code (engraved/stamped): 12
    Barcode: 4 948722 000211
    EXE/Build Date: 19970804
    Error Count: 0
    Comments: (OPTIONAL)
    Contents: (OPTIONAL)

Version and Editions:
    Version: V1.000
    Edition/Release: Original

Extras:
    Primary Volume Descriptor (PVD):

0320 : 20 20 20 20 20 20 20 20  20 20 20 20 20 31 39 39                199
0330 : 37 30 38 30 34 31 33 32  35 34 39 30 30 14 31 39   7080413254900.19
0340 : 39 37 30 38 30 34 31 33  32 35 34 39 30 30 14 30   97080413254900.0
0350 : 30 30 30 30 30 30 30 30  30 30 30 30 30 30 30 00   000000000000000.
0360 : 30 30 30 30 30 30 30 30  30 30 30 30 30 30 30 30   0000000000000000
0370 : 00 01 00 00 00 00 00 00  00 00 00 00 00 00 00 00   ................

    Header:

0000 : 53 45 47 41 20 53 45 47  41 53 41 54 55 52 4E 20   SEGA SEGASATURN 
0010 : 53 45 47 41 20 54 50 20  54 2D 33 34 36 20 20 20   SEGA TP T-346   
0020 : 54 2D 33 34 36 30 32 47  20 20 56 31 2E 30 30 30   T-34602G  V1.000
0030 : 31 39 39 37 30 38 30 34  43 44 2D 31 2F 31 20 20   19970804CD-1/1  
0040 : 4A 20 20 20 20 20 20 20  20 20 20 20 20 20 20 20   J               
0050 : 4A 20 20 20 20 20 20 20  20 20 20 20 20 20 20 20   J               
0060 : 46 49 4E 44 4C 4F 56 45  20 20 20 20 20 20 20 20   FINDLOVE        
0070 : 20 20 20 20 20 20 20 20  20 20 20 20 20 20 20 20                   
0080 : 20 20 20 20 20 20 20 20  20 20 20 20 20 20 20 20                   
0090 : 20 20 20 20 20 20 20 20  20 20 20 20 20 20 20 20                   
00A0 : 20 20 20 20 20 20 20 20  20 20 20 20 20 20 20 20                   
00B0 : 20 20 20 20 20 20 20 20  20 20 20 20 20 20 20 20                   
00C0 : 20 20 20 20 20 20 20 20  20 20 20 20 20 20 20 20                   
00D0 : 00 00 00 00 00 00 00 00  00 00 00 00 00 00 00 00   ................
00E0 : 00 00 80 00 00 00 00 00  00 00 00 00 00 00 00 00   ................
00F0 : 06 00 80 00 00 04 00 00  00 00 00 00 00 00 00 00   ................

Tracks and Write Offsets:
    DAT:

<rom name="FILN_LOVE________ (Track 01).bin" size="145784016" crc="0c282a6d" md5="19ab4174b29c9ab5526a2bea9e2666ed" sha1="f0f8b4b3b0f0d5985404b87ad059d7907cef31a8" />
<rom name="FILN_LOVE________ (Track 02).bin" size="1766352" crc="db2f8025" md5="c9b7dc25bfca7af0ed27eb6fbae4b942" sha1="ac07bac3545c1162cbe2d2abc25854253d8c62fd" />
<rom name="FILN_LOVE________ (Track 03).bin" size="22304016" crc="b68c7a7e" md5="ff4ded2b0839e9306a0111ab38af6542" sha1="37baa390b64563ac601b88e5b05fa4a1311a0865" />
<rom name="FILN_LOVE________ (Track 04).bin" size="26111904" crc="4101e80d" md5="27383f491d566f162ef90cf842ac8135" sha1="1d50ff4c4f4c91e131d2241fb6ec9d3b0cf680b5" />
<rom name="FILN_LOVE________ (Track 05).bin" size="33374880" crc="08492efd" md5="8073c0fd146e4ca7655a3c6dfc4f1d01" sha1="4273671ef91940e875bbe74628c69c9906e2205c" />
<rom name="FILN_LOVE________ (Track 06).bin" size="19354608" crc="1239bba5" md5="9891ae07d68123418f8e1b7c5a52ef25" sha1="743fa0526fc2fcfa5aa6d150fd6a003bdb4326c5" />
<rom name="FILN_LOVE________ (Track 07).bin" size="25234608" crc="04b9bc5f" md5="b36dc61eeee2bc9c13e75b13b0b20361" sha1="2abeddc36d13792b138541069fa669d9fb8642fd" />
<rom name="FILN_LOVE________ (Track 08).bin" size="6218688" crc="e22d631c" md5="1d7d62e23cf0cecb6c08bd1009159df4" sha1="5a4c75d164b9e59c419a8fe87636f6475bc82d3f" />
<rom name="FILN_LOVE________ (Track 09).bin" size="12618480" crc="7431e07c" md5="53cd41717ac74d4d433d4297dbcc6ae8" sha1="20e1ea679fcadb4312aea21ca9436f29f2aa846b" />
<rom name="FILN_LOVE________ (Track 10).bin" size="13413456" crc="0c0dade6" md5="0e47cbac2d7e4d796cbb5dd5bb90b300" sha1="fce02d2bcb109e9eec91eb762fd3192312c104eb" />
<rom name="FILN_LOVE________ (Track 11).bin" size="11120256" crc="0ebb7c39" md5="2a7dd735a13623f8a0e25fbddceea3f9" sha1="abe702f2945a9460399c4305cc0fac18ae61d6ad" />
<rom name="FILN_LOVE________ (Track 12).bin" size="20182512" crc="fc33ec97" md5="a069775ee23c68d59011987f92b219b9" sha1="a97dff73b82d25e2b8c3bd4a3c106ffed611c76b" />
<rom name="FILN_LOVE________ (Track 13).bin" size="17891664" crc="63d11a12" md5="28cfbc2ddf1f9e8594857b7b8e026c3b" sha1="201b2076a59fb52b297b604f576563cd5eaea97f" />
<rom name="FILN_LOVE________ (Track 14).bin" size="24056256" crc="21693176" md5="2d089835b78c35aa803a824c94d18484" sha1="0fed2a269d222f5de1279d373cf95a14b92a9e32" />

    Cuesheet:

CATALOG 0000000000000
FILE "FILN_LOVE________ (Track 01).bin" BINARY
  TRACK 01 MODE1/2352
    INDEX 01 00:00:00
FILE "FILN_LOVE________ (Track 02).bin" BINARY
  TRACK 02 AUDIO
    INDEX 00 00:00:00
    INDEX 01 00:02:00
FILE "FILN_LOVE________ (Track 03).bin" BINARY
  TRACK 03 AUDIO
    INDEX 00 00:00:00
    INDEX 01 00:01:74
FILE "FILN_LOVE________ (Track 04).bin" BINARY
  TRACK 04 AUDIO
    INDEX 00 00:00:00
    INDEX 01 00:01:74
FILE "FILN_LOVE________ (Track 05).bin" BINARY
  TRACK 05 AUDIO
    INDEX 00 00:00:00
    INDEX 01 00:01:74
FILE "FILN_LOVE________ (Track 06).bin" BINARY
  TRACK 06 AUDIO
    INDEX 00 00:00:00
    INDEX 01 00:01:74
FILE "FILN_LOVE________ (Track 07).bin" BINARY
  TRACK 07 AUDIO
    INDEX 00 00:00:00
    INDEX 01 00:01:74
FILE "FILN_LOVE________ (Track 08).bin" BINARY
  TRACK 08 AUDIO
    INDEX 00 00:00:00
    INDEX 01 00:01:74
FILE "FILN_LOVE________ (Track 09).bin" BINARY
  TRACK 09 AUDIO
    INDEX 00 00:00:00
    INDEX 01 00:01:74
FILE "FILN_LOVE________ (Track 10).bin" BINARY
  TRACK 10 AUDIO
    INDEX 00 00:00:00
    INDEX 01 00:01:74
FILE "FILN_LOVE________ (Track 11).bin" BINARY
  TRACK 11 AUDIO
    INDEX 00 00:00:00
    INDEX 01 00:01:74
FILE "FILN_LOVE________ (Track 12).bin" BINARY
  TRACK 12 AUDIO
    INDEX 00 00:00:00
    INDEX 01 00:01:74
FILE "FILN_LOVE________ (Track 13).bin" BINARY
  TRACK 13 AUDIO
    INDEX 00 00:00:00
    INDEX 01 00:01:74
FILE "FILN_LOVE________ (Track 14).bin" BINARY
  TRACK 14 AUDIO
    INDEX 00 00:00:00
    INDEX 01 00:01:74

    Write Offset: 666