1 (edited by MajorPBX 2019-06-13 02:33:53)

Title: Gekitou Pro Yakyuu: Mizushima Shinji All Stars vs. Pro Yakyuu
Disc Number / Letter: GDT-0008C
Disc Title: Gekitou Pro Yakyuu: Mizushima Shinji All Stars vs. Pro Yakyuu
System: Triforce
Media Type: GD-ROM
Category: Games
Region: J
Languages: J
Disc Serial:
Ringcode Information:
    Mastering Code (laser branded/etched): GDT-0008C 30MS1 C 3X
    Mastering SID Code: IFPI L223
    Label-Side Mould SID Code:
    Data-Side Mould SID Code: IFPI 39B7
    Additional Mould:
    Toolstamp or Mastering Code (engraved/stamped):
Barcode:
Error Count: 0
Comments:
PIC Outer Label: 253-5508-0337E
PIC Chip Stamp: 317-0337-EXP
PIC Chip Type: PIC16C621A-20/P
PIC DES Key: 0B45139D91E0084F
Contents:
Version: V4.002
Edition/Release:
Primary Volume Descriptor (PVD):

0320 : 20 20 20 20 20 20 20 20  20 20 20 20 20 32 30 30                200
0330 : 33 30 39 31 36 31 37 32  32 31 37 30 30 24 32 30   3091617221700$20
0340 : 30 33 30 39 31 36 31 37  32 32 31 37 30 30 24 30   03091617221700$0
0350 : 30 30 30 30 30 30 30 30  30 30 30 30 30 30 30 00   000000000000000.
0360 : 30 30 30 30 30 30 30 30  30 30 30 30 30 30 30 30   0000000000000000
0370 : 00 01 00 00 00 00 00 00  00 00 00 00 00 00 00 00   ................

DAT:

<rom name="GEKITOU PRO YAKYUU (Track 1).bin" size="2090928" crc="bab170cb" md5="1600341dee522eeeb5e1e0d2e243ff78" sha1="a35c8d23b29e9544f0f477118f9e0468e1d8922a" />
<rom name="GEKITOU PRO YAKYUU (Track 2).bin" size="3532704" crc="211cdb93" md5="2238142a7f82218edeeb4cc89a562ee6" sha1="80783e504e8e5db70944702b3d90aa14a9f73a41" />
<rom name="GEKITOU PRO YAKYUU (Track 3).bin" size="1185760800" crc="4b830cd2" md5="d4466a737366d9547710c5dd928fd4a2" sha1="42d80cf0cf47ba382bd431115537dcc4713e483f" />

Cuesheet:

FILE "GEKITOU PRO YAKYUU (Track 1).bin" BINARY
  TRACK 01 MODE1/2352
    INDEX 01 00:00:00
FILE "GEKITOU PRO YAKYUU (Track 2).bin" BINARY
  TRACK 02 AUDIO
    INDEX 00 00:00:00
    INDEX 01 00:02:00
FILE "GEKITOU PRO YAKYUU (Track 3).bin" BINARY
  TRACK 03 MODE1/2352
    INDEX 01 00:00:00

Write Offset: -348

Post's attachments

GDT-0008C - GEKITOU PRO YAKYUU.zip 95.59 kb, file has never been downloaded. 

You don't have the permssions to download the attachments of this post.