Title: Wing Commander
non latin title:  ウイング・コマンダー
System:   FMT
Media: CDROM
Category:  Games
Region: Japan
Languages:  Japanese (not checked)
Serial:   A2760340 / TSC220 / HMD166   ?  All 3 are on the label
Ringcode:
     Mastering Code:   HMD-166<tab>1A1<tab>C<tab>2Y<tab>Z   
Barcode:  ? bought as disc only
Version: ?
Errors: 0
Offset:   +2146
Comments:  alt title:  Wing Commander: The 3-D Space Combat Simulator

PVD:

0320 : 20 20 20 20 20 20 20 20  20 20 20 20 20 31 39 39                199
0330 : 32 31 31 32 34 31 33 33  30 30 30 30 30 00 31 39   2112413300000.19
0340 : 39 32 31 31 32 34 31 33  33 30 30 30 30 30 00 30   92112413300000.0
0350 : 30 30 30 30 30 30 30 30  30 30 30 30 30 30 30 00   000000000000000.
0360 : 30 30 30 30 30 30 30 30  30 30 30 30 30 30 30 30   0000000000000000
0370 : 00 01 00 00 00 00 00 00  00 00 00 00 00 00 00 00   ................

CUE:

FILE "WINGCOMMANDER (Track 01).bin" BINARY
  TRACK 01 MODE1/2352
    INDEX 01 00:00:00
FILE "WINGCOMMANDER (Track 02).bin" BINARY
  TRACK 02 AUDIO
    INDEX 00 00:00:00
    INDEX 01 00:02:00
FILE "WINGCOMMANDER (Track 03).bin" BINARY
  TRACK 03 AUDIO
    INDEX 00 00:00:00
    INDEX 01 00:04:00
FILE "WINGCOMMANDER (Track 04).bin" BINARY
  TRACK 04 AUDIO
    INDEX 00 00:00:00
    INDEX 01 00:04:00
FILE "WINGCOMMANDER (Track 05).bin" BINARY
  TRACK 05 AUDIO
    INDEX 00 00:00:00
    INDEX 01 00:04:00
FILE "WINGCOMMANDER (Track 06).bin" BINARY
  TRACK 06 AUDIO
    INDEX 00 00:00:00
    INDEX 01 00:04:00
FILE "WINGCOMMANDER (Track 07).bin" BINARY
  TRACK 07 AUDIO
    INDEX 00 00:00:00
    INDEX 01 00:04:00
FILE "WINGCOMMANDER (Track 08).bin" BINARY
  TRACK 08 AUDIO
    INDEX 00 00:00:00
    INDEX 01 00:04:00
FILE "WINGCOMMANDER (Track 09).bin" BINARY
  TRACK 09 AUDIO
    INDEX 00 00:00:00
    INDEX 01 00:04:00
FILE "WINGCOMMANDER (Track 10).bin" BINARY
  TRACK 10 AUDIO
    INDEX 00 00:00:00
    INDEX 01 00:04:00
FILE "WINGCOMMANDER (Track 11).bin" BINARY
  TRACK 11 AUDIO
    INDEX 00 00:00:00
    INDEX 01 00:04:00
FILE "WINGCOMMANDER (Track 12).bin" BINARY
  TRACK 12 AUDIO
    INDEX 00 00:00:00
    INDEX 01 00:04:00
FILE "WINGCOMMANDER (Track 13).bin" BINARY
  TRACK 13 AUDIO
    INDEX 00 00:00:00
    INDEX 01 00:04:00
FILE "WINGCOMMANDER (Track 14).bin" BINARY
  TRACK 14 AUDIO
    INDEX 00 00:00:00
    INDEX 01 00:04:00
FILE "WINGCOMMANDER (Track 15).bin" BINARY
  TRACK 15 AUDIO
    INDEX 00 00:00:00
    INDEX 01 00:04:00
FILE "WINGCOMMANDER (Track 16).bin" BINARY
  TRACK 16 AUDIO
    INDEX 00 00:00:00
    INDEX 01 00:04:00
FILE "WINGCOMMANDER (Track 17).bin" BINARY
  TRACK 17 AUDIO
    INDEX 00 00:00:00
    INDEX 01 00:04:00
FILE "WINGCOMMANDER (Track 18).bin" BINARY
  TRACK 18 AUDIO
    INDEX 00 00:00:00
    INDEX 01 00:04:00
FILE "WINGCOMMANDER (Track 19).bin" BINARY
  TRACK 19 AUDIO
    INDEX 00 00:00:00
    INDEX 01 00:04:00
FILE "WINGCOMMANDER (Track 20).bin" BINARY
  TRACK 20 AUDIO
    INDEX 00 00:00:00
    INDEX 01 00:04:00
FILE "WINGCOMMANDER (Track 21).bin" BINARY
  TRACK 21 AUDIO
    INDEX 00 00:00:00
    INDEX 01 00:04:00
FILE "WINGCOMMANDER (Track 22).bin" BINARY
  TRACK 22 AUDIO
    INDEX 00 00:00:00
    INDEX 01 00:04:00
FILE "WINGCOMMANDER (Track 23).bin" BINARY
  TRACK 23 AUDIO
    INDEX 00 00:00:00
    INDEX 01 00:04:00
FILE "WINGCOMMANDER (Track 24).bin" BINARY
  TRACK 24 AUDIO
    INDEX 00 00:00:00
    INDEX 01 00:04:00
FILE "WINGCOMMANDER (Track 25).bin" BINARY
  TRACK 25 AUDIO
    INDEX 00 00:00:00
    INDEX 01 00:04:00
FILE "WINGCOMMANDER (Track 26).bin" BINARY
  TRACK 26 AUDIO
    INDEX 00 00:00:00
    INDEX 01 00:04:00
FILE "WINGCOMMANDER (Track 27).bin" BINARY
  TRACK 27 AUDIO
    INDEX 00 00:00:00
    INDEX 01 00:04:00
FILE "WINGCOMMANDER (Track 28).bin" BINARY
  TRACK 28 AUDIO
    INDEX 00 00:00:00
    INDEX 01 00:04:00
FILE "WINGCOMMANDER (Track 29).bin" BINARY
  TRACK 29 AUDIO
    INDEX 00 00:00:00
    INDEX 01 00:04:00
FILE "WINGCOMMANDER (Track 30).bin" BINARY
  TRACK 30 AUDIO
    INDEX 00 00:00:00
    INDEX 01 00:04:00
FILE "WINGCOMMANDER (Track 31).bin" BINARY
  TRACK 31 AUDIO
    INDEX 00 00:00:00
    INDEX 01 00:04:00
FILE "WINGCOMMANDER (Track 32).bin" BINARY
  TRACK 32 AUDIO
    INDEX 00 00:00:00
    INDEX 01 00:04:00
FILE "WINGCOMMANDER (Track 33).bin" BINARY
  TRACK 33 AUDIO
    INDEX 00 00:00:00
    INDEX 01 00:04:00
FILE "WINGCOMMANDER (Track 34).bin" BINARY
  TRACK 34 AUDIO
    INDEX 00 00:00:00
    INDEX 01 00:04:00
FILE "WINGCOMMANDER (Track 35).bin" BINARY
  TRACK 35 AUDIO
    INDEX 00 00:00:00
    INDEX 01 00:04:00
FILE "WINGCOMMANDER (Track 36).bin" BINARY
  TRACK 36 AUDIO
    INDEX 00 00:00:00
    INDEX 01 00:04:00
FILE "WINGCOMMANDER (Track 37).bin" BINARY
  TRACK 37 AUDIO
    INDEX 00 00:00:00
    INDEX 01 00:04:00
FILE "WINGCOMMANDER (Track 38).bin" BINARY
  TRACK 38 AUDIO
    INDEX 00 00:00:00
    INDEX 01 00:04:00
FILE "WINGCOMMANDER (Track 39).bin" BINARY
  TRACK 39 AUDIO
    INDEX 00 00:00:00
    INDEX 01 00:04:00
FILE "WINGCOMMANDER (Track 40).bin" BINARY
  TRACK 40 AUDIO
    INDEX 00 00:00:00
    INDEX 01 00:04:00
FILE "WINGCOMMANDER (Track 41).bin" BINARY
  TRACK 41 AUDIO
    INDEX 00 00:00:00
    INDEX 01 00:04:00
FILE "WINGCOMMANDER (Track 42).bin" BINARY
  TRACK 42 AUDIO
    INDEX 00 00:00:00
    INDEX 01 00:04:00
FILE "WINGCOMMANDER (Track 43).bin" BINARY
  TRACK 43 AUDIO
    INDEX 00 00:00:00
    INDEX 01 00:04:00

DAT:

    <rom name="WINGCOMMANDER (Track 01).bin" size="31399200" crc="5e851e7f" md5="5697c78372b1852b81cee2e132beb8e4" sha1="bf0d61314a26b1af8346a8af56220afde20612ef" />
    <rom name="WINGCOMMANDER (Track 02).bin" size="5115600" crc="e14355c5" md5="40f5698232b7acdb39862ed0f1c6243b" sha1="7d7db01356c45b56892826d889f066dc7d221e19" />
    <rom name="WINGCOMMANDER (Track 03).bin" size="53978400" crc="c36f6de8" md5="70a232e1699c4a5b58b03121984a57b1" sha1="14d51169db962024b8bfe88fc62022a449ec7729" />
    <rom name="WINGCOMMANDER (Track 04).bin" size="35985600" crc="89f84abc" md5="b7e3c81816d5791d03b85ff93a059a1a" sha1="3c418749221b88dd37599d40b857a275996fc983" />
    <rom name="WINGCOMMANDER (Track 05).bin" size="34750800" crc="49e26ba2" md5="215cf518ec4ba69671a0f81af23c6d34" sha1="de288e3925d1668152fc29793c3d54f891b6e096" />
    <rom name="WINGCOMMANDER (Track 06).bin" size="44629200" crc="c44deed4" md5="cc2bebbad8849273d569097acec42469" sha1="91ca0c3b6a2cf23acc865314017e7f10cd04eab6" />
    <rom name="WINGCOMMANDER (Track 07).bin" size="4057200" crc="95881f03" md5="ea640c36eaf8ea3b9c0d1f0e7d981ac2" sha1="96a6343250951bec61865b1f40402b7d6fa38a0d" />
    <rom name="WINGCOMMANDER (Track 08).bin" size="11818800" crc="788c6390" md5="0e817ff8a6182c41f17f17669a4dd9e5" sha1="b426096f8bc8dad252242ae4273c8c9067b7d3f9" />
    <rom name="WINGCOMMANDER (Track 09).bin" size="3351600" crc="0c1d192b" md5="67b5722bdd524e31d68b54977fb79540" sha1="de9ace51da25e52d38e75c025d0a8b23ddb10a80" />
    <rom name="WINGCOMMANDER (Track 10).bin" size="5292000" crc="b98ea3b0" md5="daad152100577aabf31b521f063083aa" sha1="b34eaf573aa35430078fa2c33cd768af6b8a8807" />
    <rom name="WINGCOMMANDER (Track 11).bin" size="9525600" crc="38b02380" md5="96c08b0eda5bded1ccbf4a854d78f4e4" sha1="9a6aa4a58936c2e317b1c97269410a743c809639" />
    <rom name="WINGCOMMANDER (Track 12).bin" size="18522000" crc="2b7fbdfe" md5="f6e9cbbb4b4c7c93f61873f07a6d1f65" sha1="7171df5b55def79df32bc46c7f98be612422b58f" />
    <rom name="WINGCOMMANDER (Track 13).bin" size="11818800" crc="7f631b34" md5="73972625cf4044acc0a8dbad8ad3f075" sha1="6348a699bf8fc0bd384c8138fb0a8427b96d7757" />
    <rom name="WINGCOMMANDER (Track 14).bin" size="10231200" crc="c2824a94" md5="dac11cab9cb5f0a17964d3a23d4db972" sha1="7df605a060dd9fb8e9cb14577f9fe13c52217945" />
    <rom name="WINGCOMMANDER (Track 15).bin" size="12348000" crc="24050055" md5="81f1c015fb9fa4507e39f6489d2a8e4c" sha1="25749392f0c5cea535357bc76ae51efae35b05fb" />
    <rom name="WINGCOMMANDER (Track 16).bin" size="3880800" crc="adaeac8b" md5="44d0c6fa33ebe0bd33751f282c26cf69" sha1="9233efb27723631671bd5029707c6d1b166b8e81" />
    <rom name="WINGCOMMANDER (Track 17).bin" size="8820000" crc="6ee5fca3" md5="dc5c78e194120c515304a610e449967d" sha1="d17645ce6049befd9ff9e15d517a2e85a3e701ab" />
    <rom name="WINGCOMMANDER (Track 18).bin" size="13230000" crc="308ba39a" md5="f0916c9321f3d9ce89da75ddb2593664" sha1="ea5de837115d0473b3c7d4955b18c71a5d69923f" />
    <rom name="WINGCOMMANDER (Track 19).bin" size="23461200" crc="577cc421" md5="b8c688f8bc632485506547a454e5b949" sha1="31911547b91af95d21bcdc125908b9ce2cecf9ef" />
    <rom name="WINGCOMMANDER (Track 20).bin" size="2822400" crc="806010be" md5="11b60515eba57f7f6629361806fb7fb7" sha1="4ceacb780ed8e89bf84e54e72e25565e53c35d28" />
    <rom name="WINGCOMMANDER (Track 21).bin" size="12524400" crc="e1319c7e" md5="eb38d2383d1630c4fa8fd9ac92497eec" sha1="3ba5e5812970d76f9e1b1255375c5d9e60201a00" />
    <rom name="WINGCOMMANDER (Track 22).bin" size="11289600" crc="29bbd30b" md5="a4700003b93cb8bf9766928e267e32cc" sha1="71ff3a8b2fd8f410ffdad00928058d1807452488" />
    <rom name="WINGCOMMANDER (Track 23).bin" size="9878400" crc="ee14c1f7" md5="d9d380fc69800a9ae069ab28bede76f6" sha1="c633aa0a57427cad4fe77c4a0aade5ccc0772a8d" />
    <rom name="WINGCOMMANDER (Track 24).bin" size="3175200" crc="0b1d85c0" md5="c4dae0996be35786c0aeb48b1bb68f84" sha1="a26b755d26f109228fb61efc572cc6265af33614" />
    <rom name="WINGCOMMANDER (Track 25).bin" size="5292000" crc="d55b1806" md5="8f926607d9923c941e5c5d8ba621665a" sha1="409309567189821eaf97f5bcaa56e72fec862fd0" />
    <rom name="WINGCOMMANDER (Track 26).bin" size="4057200" crc="8c406987" md5="a97b53356b441930256475a803cbf3be" sha1="d8c2d282c5c2e5addacd7d3792d420ab5149bfa6" />
    <rom name="WINGCOMMANDER (Track 27).bin" size="11289600" crc="83e98a71" md5="fcba2e7ba8d40e907dc9aa172d0ce260" sha1="c637b127ee3189facb8dabdf86531ae2db5d2e34" />
    <rom name="WINGCOMMANDER (Track 28).bin" size="12348000" crc="62b644c0" md5="e600717f95d28cdf6b0d9efdc8b5c986" sha1="29933ed1128109e9ea1d180a6ea1b5ca12e624e8" />
    <rom name="WINGCOMMANDER (Track 29).bin" size="11818800" crc="6b97ffc6" md5="17bef220ce0ec7998a845acaebeb34b0" sha1="e28e6443db86afa74f48236032ddfa6e24e3e6ed" />
    <rom name="WINGCOMMANDER (Track 30).bin" size="4233600" crc="1e8aa02a" md5="967f50257bf3f5e81e9add4a2a7c387a" sha1="40925f697011dba22b67f3819d1b2fffe1b8be6e" />
    <rom name="WINGCOMMANDER (Track 31).bin" size="9525600" crc="4c813c54" md5="64808bab0dfd4afb34db4319f803a93e" sha1="4d7c96fed23ee45d82b2a18ad653a9e4cd6b6c53" />
    <rom name="WINGCOMMANDER (Track 32).bin" size="11642400" crc="b0243dc0" md5="51a8f28ab8da6b53251765a51be087db" sha1="5f5f76daaa6bc04c35af00dce4b44b2ab7a20bbf" />
    <rom name="WINGCOMMANDER (Track 33).bin" size="16405200" crc="1ce09433" md5="3d9f9b01a027f029df8e49a582dcb0f2" sha1="2e3ccc1a5f36fa0ea21d5a692fcec5ce0cba7a3b" />
    <rom name="WINGCOMMANDER (Track 34).bin" size="19580400" crc="9e77f19b" md5="19340f753d53b8dac42facdcde1620fa" sha1="11f4478ec6b719342fe67976c356eaad362a63be" />
    <rom name="WINGCOMMANDER (Track 35).bin" size="9525600" crc="cb1025d4" md5="a8525fbfb46f7b353f48bc6c4dcafcf3" sha1="4b83699ecbf1b9b03bc3b4465d2345e016e20b6f" />
    <rom name="WINGCOMMANDER (Track 36).bin" size="9702000" crc="b236351c" md5="e6c29deb6d628668c5351a601b1a7797" sha1="b351232770f9570971e2b7f86e5d23d1acf331ee" />
    <rom name="WINGCOMMANDER (Track 37).bin" size="12171600" crc="92e9d9ea" md5="d0c785b3f8c384b139ac419068af5cab" sha1="e418ad24679535476375ac5160eba59aeada9b33" />
    <rom name="WINGCOMMANDER (Track 38).bin" size="8996400" crc="f7c40b63" md5="9c6ed6729444fb4dfc45fb10522aaccf" sha1="9eed433fa062a3e65f812017747e7684e3d5fe20" />
    <rom name="WINGCOMMANDER (Track 39).bin" size="10231200" crc="dd6b5b73" md5="3e10568bcb4da1403a0714250b31f08e" sha1="16d76d6225b72cae3c7420548e3e2a065218bdbb" />
    <rom name="WINGCOMMANDER (Track 40).bin" size="18522000" crc="2b823837" md5="3226df7d698b9ca29b72d937c76245ef" sha1="703625f6c7329dbcdd0c9e43869ca981549dcc75" />
    <rom name="WINGCOMMANDER (Track 41).bin" size="11113200" crc="7c0eff1b" md5="4843469afa65727b36d7dc37359eb10f" sha1="ecf777ad0922b5e63c861223fd960cfb54c93553" />
    <rom name="WINGCOMMANDER (Track 42).bin" size="7585200" crc="d9798535" md5="91fbf47e9189e0dd7a27623e38f470a7" sha1="473a689b4ba8e5a99275227738f458bd9a06823f" />
    <rom name="WINGCOMMANDER (Track 43).bin" size="21168000" crc="374375a5" md5="4b2688bd96a2511aaae22dabe037e5fa" sha1="2aadbdfa0afc8019c6e2c08181a46f1ec3c17753" />

Logs:


https://mega.nz/#!D1FQEKbB!1wbSP3D3lwAo … mj7hZ0NgQo