These are the Audio CD discs that came bundled with the PSP LE in my other post.
Photos can be found in the link there.
Discs were dumped twice with same results.
I tried my best with Romanization of the names, but I advice that someone with good knowledge of Japanese should double check the names I came up with. These are rare and it's not particularly easy to find info or proper names in English webpages. My knowledge of Japanese is roughly Google-translate level, but I did some digging in the Japanese web and I think my results are decent-ish. Hopefully. smile


1)
Mother Goose no Himitsu no Yakata - Nursery Rhymes for you Gouka-ban Drama CD
Japanese title (please double check vs picture) : マザーグースの秘密の館~Nursery Rhymes for you~  豪華版ドラマCD

!submissioninfo.txt

Title: Mother Goose no Himitsu no Yakata - Nursery Rhymes for you Gouka-ban Drama CD
Disc Number / Letter: (OPTIONAL)
Disc Title: (OPTIONAL)
System: Audio CD
Media Type: CD-ROM
Category: Bonus Discs
Region: Japan
Languages: Japanese
Disc Serial: NONE
Ringcode Information:
    Mastering Code (laser branded/etched): ART110606 <TAB> -RC01-
    Mastering SID Code: IFPI LZ49
    Label-Side Mould SID Code: (REQUIRED, IF EXISTS)
    Data-Side Mould SID Code: (REQUIRED, IF EXISTS)
    Additional Mould: IFPI 7606 (plastic, inner rim)
    Toolstamp or Mastering Code (engraved/stamped): NONE
Barcode: 4 560231 120466
Error Count: -1
Comments: Drama Audio CD included with Mother Goose no Himitsu no Yakata Deluxe Edition (ROSE 00006) for PSP
Contents: (OPTIONAL)
Version: (REQUIRED, IF EXISTS)
Edition/Release: Gouka-ban (Deluxe Edition)
Primary Volume Descriptor (PVD):

Disc has no PVD
DAT:

<rom name="Mother Goose (Track 1).bin" size="95684064" crc="8e539d33" md5="ef8674ea0a22cfef67bcedd571c04723" sha1="fd50294b23016aca0bd2abbba841e78aff8d7145" />
<rom name="Mother Goose (Track 2).bin" size="40586112" crc="694dc09b" md5="407bf3eac38dc60092fc6492f1da305f" sha1="6b393a9ab993e9fe5d44e3ec420b51d9f3c07cce" />
<rom name="Mother Goose (Track 3).bin" size="75866112" crc="bf4637ed" md5="439eb65f82aca02a6310955629cefd94" sha1="11116ff42176e27d0c7e821b6801a2b60b8dcc40" />
<rom name="Mother Goose (Track 4).bin" size="161422464" crc="85b0fb62" md5="cff8d6ea801a0dc696fcd487083e144f" sha1="2ce2e6f6f5873c2f345c826b2958fb9c41b60aa7" />
<rom name="Mother Goose (Track 5).bin" size="41291712" crc="34c51eca" md5="e071db5f903a095d173362664bfb1816" sha1="795b7da88a24a5a467b63dc354203d728277b134" />
<rom name="Mother Goose (Track 6).bin" size="34767264" crc="2cd8a39b" md5="d432f700829b70e09e794b820cefde7a" sha1="b88e7900c8d3873a62bb36461dcd5510c87e306b" />
<rom name="Mother Goose (Track 7).bin" size="48397104" crc="46ccb843" md5="4fc82c6588be6d78e818f4544e7d3001" sha1="fa0cbb45af9007ab420a83e2b1318d376fa9a525" />

Cuesheet:

FILE "Mother Goose (Track 1).bin" BINARY
  TRACK 01 AUDIO
    INDEX 01 00:00:00
FILE "Mother Goose (Track 2).bin" BINARY
  TRACK 02 AUDIO
    INDEX 00 00:00:00
    INDEX 01 00:02:00
FILE "Mother Goose (Track 3).bin" BINARY
  TRACK 03 AUDIO
    INDEX 00 00:00:00
    INDEX 01 00:02:00
FILE "Mother Goose (Track 4).bin" BINARY
  TRACK 04 AUDIO
    INDEX 00 00:00:00
    INDEX 01 00:02:00
FILE "Mother Goose (Track 5).bin" BINARY
  TRACK 05 AUDIO
    INDEX 00 00:00:00
    INDEX 01 00:02:00
FILE "Mother Goose (Track 6).bin" BINARY
  TRACK 06 AUDIO
    INDEX 00 00:00:00
    INDEX 01 00:02:00
FILE "Mother Goose (Track 7).bin" BINARY
  TRACK 07 AUDIO
    INDEX 00 00:00:00
    INDEX 01 00:02:00

Write Offset: 0

Logs can be found here: https://mega.nz/#!uxBCxQqR!mcqT_rh6fw3Y … 73RxrJoLQs

2)
Solomon's Ring - Chi no Shou Gentei-ban Tokuten Drama CD "Akuma vs Akuma - Tatakai no Hate ni Yuujou wa Mebaeru Ka?"
Japanese title (please double check vs picture) : Solomon's Ring ~地の章~ 限定版特典 ドラマ CD~ 悪魔 VS 悪魔 ~戦いの果てに友情は芽生えるか?~

!submissioninfo.txt

Title: Solomon's Ring - Chi no Shou DRAMA CD "AKUMA VS AKUMA - TATAKAI NO HATE NI YUUJOU WA MEBAERU KA?"
Disc Number / Letter: (OPTIONAL)
Disc Title: (OPTIONAL)
System: Audio CD
Media Type: CD-ROM
Category: Bonus Discs
Region: Japan
Languages: Japanese
Disc Serial: NONE
Ringcode Information:
    Mastering Code (laser branded/etched): PP-0004 <TAB> -RC01-
    Mastering SID Code: IFPI LZ49
    Label-Side Mould SID Code: (REQUIRED, IF EXISTS)
    Data-Side Mould SID Code: (REQUIRED, IF EXISTS)
    Additional Mould: IFPI 7612 (plastic, inner ring)
    Toolstamp or Mastering Code (engraved/stamped): NONE
Barcode: 4 560269 474975
Error Count: -1
Comments: Audio Drama CD included with Solomon's Ring -  Chi no Shou Limited Edition (PP-0004) for PSP
Contents: (OPTIONAL)
Version: (REQUIRED, IF EXISTS)
Edition/Release: Limited Edition
Primary Volume Descriptor (PVD):

Disc has no PVD
DAT:

<rom name="Solomons Ring.bin" size="195768720" crc="923a9ac8" md5="6bf9561bdf3c71a019579b14b99220e2" sha1="804804c60107aae5c8ba8de700d94893698fc80b" />

Cuesheet:

FILE "Solomons Ring.bin" BINARY
  TRACK 01 AUDIO
    INDEX 01 00:00:00

Write Offset: 0

Logs can be found here: https://mega.nz/#!3xo3UCZQ!J6v-qeU0hcwF … RAdIZ19qCo