Title:  Bulk Slash
Disc Number / Letter: 1
Disc Title:
System: Sega Saturn
Media Type: CD-ROM
Category: Games
Region: Japan 
Languages: Japanese 
Disc Serial: T-14325G
Build Date: 19970424
Ringcode Information:
    Mastering Code (laser branded/etched):   T-14310GP-01626-P1K   V
    Mastering SID Code:  IFPI L237
    Data-Side Mould SID Code:  IFPI 4011
    Label-Side Mould SID Code: 
    Additional Mould: 
    Toolstamp or Mastering Code (engraved/stamped):  11
Barcode: 4 988607 201326
Error Count: 0
Comments:
Contents:
Version: V1.001
Edition/Release: Satakore
Header:

0000 : 53 45 47 41 20 53 45 47  41 53 41 54 55 52 4E 20   SEGA SEGASATURN
0010 : 53 45 47 41 20 54 50 20  54 2D 31 34 33 20 20 20   SEGA TP T-143   
0020 : 54 2D 31 34 33 31 30 47  20 20 56 31 2E 30 30 31   T-14310G  V1.001
0030 : 31 39 39 37 30 34 32 34  43 44 2D 31 2F 31 20 20   19970424CD-1/1 
0040 : 4A 20 20 20 20 20 20 20  20 20 20 20 20 20 20 20   J               
0050 : 4A 20 20 20 20 20 20 20  20 20 20 20 20 20 20 20   J               
0060 : 42 55 4C 4B 20 53 4C 41  53 48 20 20 20 20 20 20   BULK SLASH     
0070 : 20 20 20 20 20 20 20 20  20 20 20 20 20 20 20 20                   
0080 : 20 20 20 20 20 20 20 20  20 20 20 20 20 20 20 20                   
0090 : 20 20 20 20 20 20 20 20  20 20 20 20 20 20 20 20                   
00A0 : 20 20 20 20 20 20 20 20  20 20 20 20 20 20 20 20                   
00B0 : 20 20 20 20 20 20 20 20  20 20 20 20 20 20 20 20                   
00C0 : 20 20 20 20 20 20 20 20  20 20 20 20 20 20 20 20                   
00D0 : 00 00 00 00 00 00 00 00  00 00 00 00 00 00 00 00   ................
00E0 : 00 00 18 00 00 00 00 00  00 00 00 00 00 00 00 00   ................
00F0 : 06 00 40 00 00 06 00 00  00 00 00 00 00 00 00 00   ..@.............

Primary Volume Descriptor (PVD):

0320 : 20 20 20 20 20 20 20 20  20 20 20 20 20 31 39 39                199
0330 : 37 30 34 32 34 30 30 30  30 30 30 30 30 24 31 39   7042400000000$19
0340 : 39 37 30 34 32 34 30 30  30 30 30 30 30 30 24 30   97042400000000$0
0350 : 30 30 30 30 30 30 30 30  30 30 30 30 30 30 30 00   000000000000000.
0360 : 30 30 30 30 30 30 30 30  30 30 30 30 30 30 30 30   0000000000000000
0370 : 00 01 00 00 00 00 00 00  00 00 00 00 00 00 00 00   ................

DAT:

<rom name="T14310G_BULK_SLASH (Track 1).bin" size="158496576" crc="372052c7" md5="f392d1f214401d8ba7377fbf9866a87b" sha1="4a86915c45a914e54e7b610ba9bfa98d3a73c26f" />
<rom name="T14310G_BULK_SLASH (Track 2).bin" size="5379024" crc="5956b47a" md5="01102d1529b82b2c86c3e5df128aea60" sha1="199a12be951038328b5ffec60b335683d69633ac" />
<rom name="T14310G_BULK_SLASH (Track 3).bin" size="14761152" crc="850779e7" md5="c51c0ccf9f79801ef4d9efaa44fac894" sha1="f892a2d7edcdcd86f30be687183c7c84632ec532" />

Cuesheet:

CATALOG 0000000000000
FILE "T14310G_BULK_SLASH (Track 1).bin" BINARY
  TRACK 01 MODE1/2352
    INDEX 01 00:00:00
FILE "T14310G_BULK_SLASH (Track 2).bin" BINARY
  TRACK 02 AUDIO
    INDEX 00 00:00:00
    INDEX 01 00:02:00
FILE "T14310G_BULK_SLASH (Track 3).bin" BINARY
  TRACK 03 AUDIO
    INDEX 00 00:00:00
    INDEX 01 00:01:74

Write Offset: 390

Post's attachments

T14310G_BULK_SLASH.7z 899.74 kb, file has never been downloaded. 

You don't have the permssions to download the attachments of this post.