1 (edited by dadregga 2019-05-30 23:29:12)

Looks like I have a different version of Blade Runner (1997) for PC, with different ring/mastering codes than either this: http://redump.org/disc/15398/ or this http://redump.org/disc/9670/.

This is a regular PC "big box", not a reissue as far as I can tell

DIC  20190326 220739

Files: https://drive.google.com/drive/folders/ … sp=sharing

Title: Blade Runner (USA) (Disc 1) (Alt)
Disc Number / Letter: 1
Disc Title: Blade Runner (USA) (Disc 1) (Alt)
System: IBM PC Compatible
Media Type: CD-ROM
Category: Games
Region: USA
Languages: English
Disc Serial: (REQUIRED, IF EXISTS)
Ringcode Information:
    Mastering Code (laser branded/etched): C2 125223-01 D831161 
    Mastering SID Code: IFPI L892
    Data-Side Mould SID Code: IFPI 2T08
    Label-Side Mould SID Code: (REQUIRED, IF EXISTS)
        Additional Mould: (REQUIRED, IF EXISTS)
    Toolstamp or Mastering Code (engraved/stamped): (REQUIRED, IF EXISTS)
Barcode: (OPTIONAL)
ISBN: (OPTIONAL)
Error Count: 0
Comments: (OPTIONAL)
Contents: (OPTIONAL)
Version: (REQUIRED, IF EXISTS)
Edition/Release: Original (VERIFY THIS)
Primary Volume Descriptor (PVD):

0320 : 20 20 20 20 20 20 20 20  20 20 20 20 20 30 30 30                000
0330 : 30 30 30 30 30 30 30 30  30 30 30 30 30 00 30 30   0000000000000.00
0340 : 30 30 30 30 30 30 30 30  30 30 30 30 30 30 00 30   00000000000000.0
0350 : 30 30 30 30 30 30 30 30  30 30 30 30 30 30 30 00   000000000000000.
0360 : 30 30 30 30 30 30 30 30  30 30 30 30 30 30 30 30   0000000000000000
0370 : 00 01 00 00 00 00 00 00  00 00 00 00 00 00 00 00   ................

Copy Protection: None found

DAT:

<rom name="Blade Runner (USA) (Disc 1) (Alt).bin" size="713265168" crc="49e19159" md5="6e0955db02cc5e930ff946a22363c4c6" sha1="537515d188c6b4ec1e9d0c76d9ea326bdf101ed1" />

Cuesheet:

FILE "Blade Runner (USA) (Disc 1) (Alt).bin" BINARY
  TRACK 01 MODE1/2352
    INDEX 01 00:00:00

Write Offset: -22
Title: Blade Runner (USA) (Disc 2) (Alt)
Disc Number / Letter: 2
Disc Title: Blade Runner (USA) (Disc 2) (Alt)
System: IBM PC Compatible
Media Type: CD-ROM
Category: Games
Region: USA
Languages: English
Disc Serial: (REQUIRED, IF EXISTS)
Ringcode Information:
    Mastering Code (laser branded/etched): C2 125227-02 D831162 
    Mastering SID Code: IFPI L892
    Data-Side Mould SID Code: IFPI 2T05
    Label-Side Mould SID Code: (REQUIRED, IF EXISTS)
        Additional Mould: (REQUIRED, IF EXISTS)
    Toolstamp or Mastering Code (engraved/stamped): (REQUIRED, IF EXISTS)
Barcode: (OPTIONAL)
ISBN: (OPTIONAL)
Error Count: 0
Comments: (OPTIONAL)
Contents: (OPTIONAL)
Version: (REQUIRED, IF EXISTS)
Edition/Release: Original (VERIFY THIS)
Primary Volume Descriptor (PVD):

0320 : 20 20 20 20 20 20 20 20  20 20 20 20 20 30 30 30                000
0330 : 30 30 30 30 30 30 30 30  30 30 30 30 30 00 30 30   0000000000000.00
0340 : 30 30 30 30 30 30 30 30  30 30 30 30 30 30 00 30   00000000000000.0
0350 : 30 30 30 30 30 30 30 30  30 30 30 30 30 30 30 00   000000000000000.
0360 : 30 30 30 30 30 30 30 30  30 30 30 30 30 30 30 30   0000000000000000
0370 : 00 01 00 00 00 00 00 00  00 00 00 00 00 00 00 00   ................

Copy Protection: None found

DAT:

<rom name="Blade Runner (USA) (Disc 2) (Alt).bin" size="725519088" crc="235a397f" md5="18957d51183729b1fc39dffedbce33f4" sha1="e57db799b71246c937ec7a98f5a55be4b5cc1dac" />

Cuesheet:

FILE "Blade Runner (USA) (Disc 2) (Alt).bin" BINARY
  TRACK 01 MODE1/2352
    INDEX 01 00:00:00

Write Offset: -22
Title: Blade Runner (USA) (Disc 3) (Alt)
Disc Number / Letter: 3
Disc Title: Blade Runner (USA) (Disc 3) (Alt)
System: IBM PC Compatible
Media Type: CD-ROM
Category: Games
Region: USA
Languages: English
Disc Serial: (REQUIRED, IF EXISTS)
Ringcode Information:
    Mastering Code (laser branded/etched): C2 125226-01 D831163
    Mastering SID Code: IFPI L892
    Data-Side Mould SID Code: IFPI 2T01
    Label-Side Mould SID Code: (REQUIRED, IF EXISTS)
        Additional Mould: (REQUIRED, IF EXISTS)
    Toolstamp or Mastering Code (engraved/stamped): (REQUIRED, IF EXISTS)
Barcode: (OPTIONAL)
ISBN: (OPTIONAL)
Error Count: 0
Comments: (OPTIONAL)
Contents: (OPTIONAL)
Version: (REQUIRED, IF EXISTS)
Edition/Release: Original (VERIFY THIS)
Primary Volume Descriptor (PVD):

0320 : 20 20 20 20 20 20 20 20  20 20 20 20 20 30 30 30                000
0330 : 30 30 30 30 30 30 30 30  30 30 30 30 30 00 30 30   0000000000000.00
0340 : 30 30 30 30 30 30 30 30  30 30 30 30 30 30 00 30   00000000000000.0
0350 : 30 30 30 30 30 30 30 30  30 30 30 30 30 30 30 00   000000000000000.
0360 : 30 30 30 30 30 30 30 30  30 30 30 30 30 30 30 30   0000000000000000
0370 : 00 01 00 00 00 00 00 00  00 00 00 00 00 00 00 00   ................

Copy Protection: None found

DAT:

<rom name="Blade Runner (USA) (Disc 3) (Alt).bin" size="683063136" crc="2a216573" md5="724734596aa47ba6954986e6ce3b1203" sha1="d9fad3777fec2737d5a0af678c1f503ddce8c6a9" />

Cuesheet:

FILE "Blade Runner (USA) (Disc 3) (Alt).bin" BINARY
  TRACK 01 MODE1/2352
    INDEX 01 00:00:00

Write Offset: -22
Title: Blade Runner (USA) (Disc 4) (Alt)
Disc Number / Letter: 4
Disc Title: Blade Runner (USA) (Disc 4) (Alt)
System: IBM PC Compatible
Media Type: CD-ROM
Category: Games
Region: USA
Languages: English
Disc Serial: (REQUIRED, IF EXISTS)
Ringcode Information:
    Mastering Code (laser branded/etched): C2 125225-01 D831164
    Mastering SID Code: IFPI L892
    Data-Side Mould SID Code: IFPI 2T02
    Label-Side Mould SID Code: (REQUIRED, IF EXISTS)
        Additional Mould: (REQUIRED, IF EXISTS)
    Toolstamp or Mastering Code (engraved/stamped): (REQUIRED, IF EXISTS)
Barcode: (OPTIONAL)
ISBN: (OPTIONAL)
Error Count: 0
Comments: (OPTIONAL)
Contents: (OPTIONAL)
Version: (REQUIRED, IF EXISTS)
Edition/Release: Original (VERIFY THIS)
Primary Volume Descriptor (PVD):

0320 : 20 20 20 20 20 20 20 20  20 20 20 20 20 30 30 30                000
0330 : 30 30 30 30 30 30 30 30  30 30 30 30 30 00 30 30   0000000000000.00
0340 : 30 30 30 30 30 30 30 30  30 30 30 30 30 30 00 30   00000000000000.0
0350 : 30 30 30 30 30 30 30 30  30 30 30 30 30 30 30 00   000000000000000.
0360 : 30 30 30 30 30 30 30 30  30 30 30 30 30 30 30 30   0000000000000000
0370 : 00 01 00 00 00 00 00 00  00 00 00 00 00 00 00 00   ................

Copy Protection: None found

DAT:

<rom name="Blade Runner (USA) (Disc 4) (Alt).bin" size="667050720" crc="41c41eff" md5="da8493d41fa7f3a03f830f81de9fcaa9" sha1="03e0a40aa6c9707a16b2dace28591362d5556e9a" />

Cuesheet:

FILE "Blade Runner (USA) (Disc 4) (Alt).bin" BINARY
  TRACK 01 MODE1/2352
    INDEX 01 00:00:00

Write Offset: -22