================================================================================
Diablo
Matches: http://redump.org/disc/2009/
Logs: https://mega.nz/#!lJxSzaoZ!idhQ8pGjzKb8 … t_RYSAfm-w
Scans: https://mega.nz/#!lV5lTIgZ!f-c7wp8nwAc- … 5A_W5Xuf9Y

Title: Diablo
System: IBM PC Compatible
Media Type: CD-ROM
Category: Games
Region: USA
Languages: English
Ringcode Information:
    Mastering Code (laser branded/etched): FM11537(14210/DA0001) [TAB] B312394-2
    Mastering SID Code: IFPI L806
    Data-Side Mould SID Code: IFPI 3V22
Error Count: 0
Version: 1.00
Edition/Release: Original
Primary Volume Descriptor (PVD):

0320 : 20 20 20 20 20 20 20 20  20 20 20 20 20 31 39 39                199
0330 : 36 31 32 32 37 30 37 32  38 31 35 30 30 00 31 39   6122707281500.19
0340 : 39 36 31 32 32 37 30 37  32 38 31 36 30 30 00 00   96122707281600..
0350 : 00 00 00 00 00 00 00 00  00 00 00 00 00 00 00 00   ................
0360 : 00 00 00 00 00 00 00 00  00 00 00 00 00 00 00 00   ................
0370 : 00 01 00 00 00 00 00 00  00 00 00 00 00 00 00 00   ................

Copy Protection: None found

DAT:

<rom name="Diablo (1996).bin" size="688870224" crc="edf6b970" md5="09de94c03de84c6b90ca6aa77bb42de5" sha1="8f61c3cc7c493f88539a914856d412870b6493e8" />

Cuesheet:

CATALOG 0000000000000
FILE "Diablo (1996).bin" BINARY
  TRACK 01 MODE1/2352
    INDEX 01 00:00:00

Write Offset: 222

================================================================================
Fallout 4
Matches: http://redump.org/disc/46022/
Logs: https://mega.nz/#!9BxgxSxI!EeR9vFrE_fnq … q8KYyaULQ8
Scans: https://mega.nz/#!BZoFCIRR!NQ2fU9n64ROh … zzXIdLfCYQ

Title: Fallout 4
System: IBM PC Compatible
Media Type: DVD-ROM-9
Category: Games
Region: USA & Europe
Languages: Chinese, English, French, German, Italian, Japanese, Polish, Portugese, Russian, Spanish 
Disc Serial: TZB17039UND
Ringcode Information:
    Outer Mastering Code (laser branded/etched): (568260) TZB17039UND 01
    Inner Mastering Code (laser branded/etched): (568259) TZB17039UND 01
    Outer Mastering SID Code: IFPI L779
    Inner Mastering SID Code: IFPI L779
    Label-Side Mould SID Code: IFPI KK2D
    Data-Side Mould SID Code: IFPI KK12D
    Additional Mould: (REQUIRED, IF EXISTS)
    Outer Toolstamp or Mastering Code (engraved/stamped): 0103
    Inner Toolstamp or Mastering Code (engraved/stamped): 0106
Barcode: 0 93155 17039 1
Version: 1.0
Edition/Release: Original
Layerbreak: 1368368
Primary Volume Descriptor (PVD):

0320 : 20 20 20 20 20 20 20 20  20 20 20 20 20 32 30 31                201
0330 : 35 30 39 31 39 31 35 33  38 30 31 30 30 F0 32 30   5091915380100.20
0340 : 31 35 30 39 31 39 31 35  33 38 30 31 30 30 F0 30   15091915380100.0
0350 : 30 30 30 30 30 30 30 30  30 30 30 30 30 30 30 00   000000000000000.
0360 : 30 30 30 30 30 30 30 30  30 30 30 30 30 30 30 30   0000000000000000
0370 : 00 01 00 49 6D 67 42 75  72 6E 20 76 32 2E 35 2E   ...ImgBurn v2.5.

Copy Protection: I:\SteamRetailInstaller.dmg: Steam
I:\SteamSetup.exe: Steam

DAT:

<rom name="Fallout 4.iso" size="5604835328" crc="9db08fdd" md5="17a0a03ce14146f2f4b8bb7bf9509d6f" sha1="347da3d8d5aa61e08817c4042f927cc92241e44b" />

================================================================================
Incoming
Matches: http://redump.org/disc/53296/
Logs: https://mega.nz/#!1RwSRKTQ!6v_t8TlYTHNF … Thr_dZbbEA
Scans: https://mega.nz/#!QYJWwAyA!TVLa0oNHXO8b … Jm6nE52_3k

Title: Incoming
System: IBM PC Compatible
Media Type: CD-ROM
Category: Games
Region: USA
Languages: English, Brazilian Portugese, Dutch, French, German, Italian, Spanish, Latin American Spanish, Swedish
Ringcode Information:
    Mastering Code (laser branded/etched): 319360001CPQ R3F [TAB] JVC
    Mastering SID Code: IFPI L240
    Data-Side Mould SID Code: IFPI 4121
    Toolstamp or Mastering Code (engraved/stamped): 16
Error Count: 0
Comments: Bundled with Compaq Presario PC's
Edition/Release: Bundle Version Compaq OEM
Primary Volume Descriptor (PVD):

0320 : 20 20 20 20 20 20 20 20  20 20 20 20 20 31 39 39                199
0330 : 38 30 36 31 38 30 31 31  36 30 30 30 30 00 31 39   8061801160000.19
0340 : 39 38 30 36 31 38 30 31  31 36 30 30 30 30 00 32   98061801160000.2
0350 : 30 30 38 30 36 31 39 30  30 31 36 30 30 30 30 00   008061900160000.
0360 : 31 39 39 38 30 36 31 38  30 31 31 36 30 30 30 30   1998061801160000
0370 : 00 01 00 00 00 00 00 00  00 00 00 00 00 00 00 00   ................

Copy Protection: None found

DAT:

<rom name="Incoming (1998) (Track 01).bin" size="96102720" crc="ac8b7257" md5="6325e03f8a95da56bb1325889a360d5f" sha1="4c866e7f3296113038c65fd85723cfa64783331f" />
<rom name="Incoming (1998) (Track 02).bin" size="53221056" crc="796e470d" md5="8b560c1e77878c15eee5128e33d1e859" sha1="beeabf0fd5a71ad9d103ec83bc021134ee6eea2f" />
<rom name="Incoming (1998) (Track 03).bin" size="39713520" crc="7db4db81" md5="e6963f8b0b1f84867cbed6bf1c9b176d" sha1="755c9b379df5819b18c62055295dd95caae71bbe" />
<rom name="Incoming (1998) (Track 04).bin" size="30107952" crc="ff69e8f7" md5="5e179d75fc77dc54460c74e3d8a713cf" sha1="7fc18003af72f5389d5e0695c1c2f39e7564dc5e" />
<rom name="Incoming (1998) (Track 05).bin" size="42230160" crc="7c66c38a" md5="6c54b7a0daad0bba86ed85d3cce51318" sha1="a7757ce4c880ad1c3e3f755183158709f4c3ed0e" />
<rom name="Incoming (1998) (Track 06).bin" size="31385088" crc="6bf97628" md5="2e43fa5fd76eaa3fedc65b59d2c2aa95" sha1="7f8f27f1ed88233b154db8ecb0b068d2fdbd7a8c" />
<rom name="Incoming (1998) (Track 07).bin" size="42213696" crc="f5fd0c04" md5="103eeb1b09b0ce627780608d63ea8cf7" sha1="c767a217a91e4fd7d4b19376bf3ee2e2ed6d13d1" />
<rom name="Incoming (1998) (Track 08).bin" size="29145984" crc="3379b6fe" md5="b261d503cb146f257f803ef577666f5f" sha1="07162d4899a080042355cede0ed1abb8b931194d" />
<rom name="Incoming (1998) (Track 09).bin" size="27593664" crc="141ccfa2" md5="502a594b596f12626005c0e612773851" sha1="f0f13bbdc3293c7633901fe557080d54c7a99125" />
<rom name="Incoming (1998) (Track 10).bin" size="28797888" crc="f8a4c24f" md5="d51704ab912ccd6315efcdeec4cf4ced" sha1="22a5cf64dd26d7a6d8215310b83d964f9a9c0eac" />
<rom name="Incoming (1998) (Track 11).bin" size="1768704" crc="65a9c08e" md5="01b5b89e325ccdbfe2dc094431ad662c" sha1="eb2497328011df957b9dcd52c930b0b0043ea5bf" />

Cuesheet:

FILE "Incoming (1998) (Track 01).bin" BINARY
  TRACK 01 MODE1/2352
    INDEX 01 00:00:00
FILE "Incoming (1998) (Track 02).bin" BINARY
  TRACK 02 AUDIO
    INDEX 00 00:00:00
    INDEX 01 00:02:00
FILE "Incoming (1998) (Track 03).bin" BINARY
  TRACK 03 AUDIO
    INDEX 01 00:00:00
FILE "Incoming (1998) (Track 04).bin" BINARY
  TRACK 04 AUDIO
    INDEX 01 00:00:00
FILE "Incoming (1998) (Track 05).bin" BINARY
  TRACK 05 AUDIO
    INDEX 01 00:00:00
FILE "Incoming (1998) (Track 06).bin" BINARY
  TRACK 06 AUDIO
    INDEX 01 00:00:00
FILE "Incoming (1998) (Track 07).bin" BINARY
  TRACK 07 AUDIO
    INDEX 01 00:00:00
FILE "Incoming (1998) (Track 08).bin" BINARY
  TRACK 08 AUDIO
    INDEX 01 00:00:00
FILE "Incoming (1998) (Track 09).bin" BINARY
  TRACK 09 AUDIO
    INDEX 01 00:00:00
FILE "Incoming (1998) (Track 10).bin" BINARY
  TRACK 10 AUDIO
    INDEX 01 00:00:00
FILE "Incoming (1998) (Track 11).bin" BINARY
  TRACK 11 AUDIO
    INDEX 01 00:00:00

Write Offset: -12

================================================================================
MechWarrior 3
Matches: http://redump.org/disc/44943/
Logs: https://mega.nz/#!UM4kwQBA!Q5enuPAy9wuu … HB_rSnjbgQ
Scans: https://mega.nz/#!wM4zUQbK!4UIoCEV9krt3 … Ui_Wsnq-MQ

Title: MechWarrior 3
System: IBM PC Compatible
Media Type: CD-ROM
Category: Games
Region: USA
Languages: English
Ringcode Information:
    Mastering Code (laser branded/etched): 99574 [TAB] ++ [TAB] 03000-01
    Mastering SID Code: IFPI L028
    Data-Side Mould SID Code: IFPI 1072
Error Count: 0
Version: 1.2
Edition/Release: Rerelease
Primary Volume Descriptor (PVD):

0320 : 20 20 20 20 20 20 20 20  20 20 20 20 20 31 39 39                199
0330 : 39 31 30 30 35 31 36 33  31 33 37 30 30 00 31 39   9100516313700.19
0340 : 39 39 31 30 30 35 31 36  33 31 33 37 30 30 00 32   99100516313700.2
0350 : 30 30 39 31 30 30 32 31  36 33 31 33 37 30 30 00   009100216313700.
0360 : 31 39 39 39 31 30 30 35  31 36 33 31 33 37 30 30   1999100516313700
0370 : 00 01 00 00 00 00 00 00  00 00 00 00 00 00 00 00   ................

Copy Protection: None found

DAT:

<rom name="MechWarrior 3 (1999) (Track 1).bin" size="626299968" crc="101241b9" md5="3c8d8144125ee5680e7ac637386c0b58" sha1="13f40191e79dd3a50721da4920baaadd67ebfd5f" />
<rom name="MechWarrior 3 (1999) (Track 2).bin" size="33177312" crc="2a92b884" md5="2087af200c41c08c10e98c03ce7e1417" sha1="3942724cda1963269436d6abe175eb27f224c968" />
<rom name="MechWarrior 3 (1999) (Track 3).bin" size="33854688" crc="e4a6c0b5" md5="31c1533fcd21f846dcf7e0d01b923820" sha1="01c30cd1244fbfc16f406f31d9f1e947a8f26617" />

Cuesheet:

FILE "MechWarrior 3 (1999) (Track 1).bin" BINARY
  TRACK 01 MODE1/2352
    INDEX 01 00:00:00
FILE "MechWarrior 3 (1999) (Track 2).bin" BINARY
  TRACK 02 AUDIO
    INDEX 00 00:00:00
    INDEX 01 00:02:00
FILE "MechWarrior 3 (1999) (Track 3).bin" BINARY
  TRACK 03 AUDIO
    INDEX 01 00:00:00

Write Offset: -12

================================================================================
MechWarrior 4 - Vengeance (Disc 2)
Matches: http://redump.org/disc/9717/
Logs: https://mega.nz/#!MY4CwawL!ZLxdPGWFoCXi … EEEE8x2NqQ
Scans: https://mega.nz/#!Qd4nkKQQ!VPMbPMherg4_ … FKGzOWwCaI

Title: MechWarrior 4: Vengeance
Disc Number / Letter: 2
System: IBM PC Compatible
Media Type: CD-ROM
Category: Games
Region: USA
Languages: English
Disc Serial: X06-17850
Ringcode Information:
    Mastering Code (laser branded/etched): 7922 X0603937 D01110-07 S [TAB] SAF
    Mastering SID Code: L388
    Data-Side Mould SID Code: IFPI 6100
    Additional Mould: M1S7
Error Count: 578
Version: 1.0
Edition/Release: Original
Primary Volume Descriptor (PVD):

0320 : 20 20 20 20 20 20 20 20  20 20 20 20 20 32 30 30                200
0330 : 30 31 31 30 38 31 34 34  31 31 38 30 30 00 32 30   0110814411800.20
0340 : 30 30 31 31 30 38 31 34  34 31 31 38 30 30 00 30   00110814411800.0
0350 : 30 30 30 30 30 30 30 30  30 30 30 30 30 30 30 00   000000000000000.
0360 : 30 30 30 30 30 30 30 30  30 30 30 30 30 30 30 30   0000000000000000
0370 : 00 01 00 00 00 00 00 00  00 00 00 00 00 00 00 00   ................

Copy Protection: G:\00000001.TMP: SafeDisc v1 or greater
G:\DRVMGT.DLL: SafeDisc 1.5x-2.40
G:\SECDRV.SYS: SafeDisc v2 or greater

DAT:

<rom name="MechWarrior 4 - Vengeance (2000) (Disc 2).bin" size="691758480" crc="175ec445" md5="2faa38d1fd8a3537586fc429c70ef2c4" sha1="b37409e90dfdda4b0fdf4b8d6b3d36200fd8c262" />

Cuesheet:

FILE "MechWarrior 4 - Vengeance (2000) (Disc 2).bin" BINARY
  TRACK 01 MODE1/2352
    INDEX 01 00:00:00

Write Offset: -12

================================================================================
Sid Meier's Alpha Centauri
Matches: http://redump.org/disc/45840/
Logs: https://mega.nz/#!dc4GwSiS!oIfr9SwTwume … bkAukjUwUI
Scans: https://mega.nz/#!dcBHwYjI!K1U1vUKUv1b8 … pnTFcbPVv8

Title: Sid Meier's Alpha Centauri
System: IBM PC Compatible
Media Type: CD-ROM
Category: Games
Region: USA
Languages: English
Disc Serial: 105907
Ringcode Information:
    Mastering Code (laser branded/etched): MASTERED BY NIMBUS [TAB] EA-105907
    Mastering SID Code: IFPI L124
    Data-Side Mould SID Code: IFPI 2421
Error Count: 0
Version: 1.0I
Edition/Release: Original
Primary Volume Descriptor (PVD):

0320 : 20 20 20 20 20 20 20 20  20 20 20 20 20 31 39 39                199
0330 : 39 30 31 31 35 31 35 35  37 35 33 31 35 95 31 39   9011515575315.19
0340 : 39 39 30 31 31 35 31 35  35 38 33 34 39 30 03 00   99011515583490..
0350 : 00 00 00 00 00 00 00 00  00 00 00 00 00 00 00 00   ................
0360 : 00 00 00 00 00 00 00 00  00 00 00 00 00 00 00 00   ................
0370 : 00 01 00 00 00 00 00 00  00 00 00 00 00 00 00 00   ................

Copy Protection: None found

DAT:

<rom name="Sid Meier's Alpha Centauri (1999).bin" size="556410288" crc="c34a157d" md5="6f11c7f3e6ae00a1c0412ff29ec2dfcd" sha1="3203e3b8f90682238f43c37f6ed1f6829c22521a" />

Cuesheet:

FILE "Sid Meier's Alpha Centauri (1999).bin" BINARY
  TRACK 01 MODE1/2352
    INDEX 01 00:00:00

Write Offset: -12

================================================================================
SimEarth
Matches: http://redump.org/disc/46262/
Logs: https://mega.nz/#!pEw2zAKB!dDtjcKnBximc … SqmtS5h0SM
Scans: https://mega.nz/#!pIZhmCgY!wTO4FCMVhL0J … URZCJaAFdA

Title: SimEarth
Alternative Title: SimEarth: The Living Planet
System: IBM PC Compatible
Media Type: CD-ROM
Category: Games
Region: USA
Languages: English
Disc Serial: 1111507
Ringcode Information:
    Mastering Code (laser branded/etched): 1111507 R2F
    Mastering SID Code: IFPI L240
    Data-Side Mould SID Code: IFPI 4151
    Toolstamp or Mastering Code (engraved/stamped): 12
Error Count: 0
Comments: PC/Mac Hybrid
Edition/Release: Original
Primary Volume Descriptor (PVD):

0320 : 20 20 20 20 20 20 20 20  20 20 20 20 20 31 39 39                199
0330 : 37 31 30 31 34 31 30 35  34 34 39 30 30 00 31 39   7101410544900.19
0340 : 39 37 31 30 31 34 31 30  35 35 31 35 30 30 00 00   97101410551500..
0350 : 00 00 00 00 00 00 00 00  00 00 00 00 00 00 00 00   ................
0360 : 00 00 00 00 00 00 00 00  00 00 00 00 00 00 00 00   ................
0370 : 00 01 00 00 00 00 00 00  00 00 00 00 00 00 00 00   ................

Copy Protection: None found

DAT:

<rom name="SimEarth - The Living Planet (1990).bin" size="16400496" crc="7e0ec424" md5="df3b447b29bb91bbf8d5c9b040a94d7a" sha1="63764b45ecc9a638fc6a0a876b15a3fbacd38b93" />

Cuesheet:

FILE "SimEarth - The Living Planet (1990).bin" BINARY
  TRACK 01 MODE1/2352
    INDEX 01 00:00:00

Write Offset: -12

================================================================================
Star Wars: Starfighter
Matches: http://redump.org/disc/27616/
Logs: https://mega.nz/#!gYhinIKI!LG4NMKKj6yhJ … 1edDrHl-pY
Scans: https://mega.nz/#!oBImwIyB!GyA_5Pe3wSDT … wLkYWJrFhg

Title: Star Wars: Starfighter
System: IBM PC Compatible
Media Type: CD-ROM
Category: Games
Region: USA
Languages: English
Disc Serial: 6551830
Ringcode Information:
    Mastering Code (laser branded/etched): (185072) 6551830 02 [TAB] TECHNICOLOR
    Mastering SID Code: IFPI L894
    Data-Side Mould SID Code: IFPI 4M02
    Additional Mould: TECHNICOLOR/CA
Barcode: 0 23272 65518 1
Error Count: 0
Version: 1.0
Edition/Release: Original
Primary Volume Descriptor (PVD):

0320 : 20 20 20 20 20 20 20 20  20 20 20 20 20 32 30 30                200
0330 : 32 30 31 31 33 31 35 30  33 30 34 30 30 00 32 30   2011315030400.20
0340 : 30 32 30 31 31 33 31 35  30 33 30 34 30 30 00 30   02011315030400.0
0350 : 30 30 30 30 30 30 30 30  30 30 30 30 30 30 30 E0   000000000000000.
0360 : 30 30 30 30 30 30 30 30  30 30 30 30 30 30 30 30   0000000000000000
0370 : E0 01 00 00 00 00 00 00  00 00 00 00 00 00 00 00   ................

Copy Protection: None found

DAT:

<rom name="Star Wars Starfighter (2001).bin" size="578968320" crc="47eb9217" md5="f25089fd74aebf22317ffb567b7153ae" sha1="4835120f703643d5dae1c8cc6167c5f5b95cedb9" />

Cuesheet:

FILE "Star Wars Starfighter (2001).bin" BINARY
  TRACK 01 MODE2/2352
    INDEX 01 00:00:00

Write Offset: -22

================================================================================