1 (edited by user7 2019-03-30 18:15:41)

A thread for submitting Mil-CD and Unlicensed Dreamcast CDs to. Until the support is added to redump, let's prepare the dumps needed to fill out the db.

Mil-CD
Himitsu: http://forum.redump.org/topic/18053/ir0 … und-track/

Unlicensed
Cheats N Codes Volume 1: http://forum.redump.org/topic/20820/dre … -volume-1/
Hermes: http://forum.redump.org/topic/20563/dre … cd-hermes/
Feet of Fury: http://forum.redump.org/post/68256/#p68256
Wind and Water Puzzle Battles: http://forum.redump.org/topic/20950/dre … e-battles/

Game: Feet of Fury
Region: USA
Unlicensed Dreamcast game.

Rings:
Mastering code: AMTONE 6323

mastering sid code: IFPI LH81

Title: (REQUIRED)
Disc Number / Letter: (OPTIONAL)
Disc Title: (OPTIONAL)
System: Sega Dreamcast
Media Type: CD-ROM
Category: Games
Region: World (CHANGE THIS)
Languages: Klingon (CHANGE THIS)
Disc Serial: (REQUIRED, IF EXISTS)
Ringcode Information:
    Mastering Code (laser branded/etched): (REQUIRED, IF EXISTS)
    Mastering SID Code: (REQUIRED, IF EXISTS)
    Label-Side Mould SID Code: (REQUIRED, IF EXISTS)
    Data-Side Mould SID Code: (REQUIRED, IF EXISTS)
    Additional Mould: (REQUIRED, IF EXISTS)
    Toolstamp or Mastering Code (engraved/stamped): (REQUIRED, IF EXISTS)
Barcode: (OPTIONAL)
Error Count: 0
Comments: (OPTIONAL)
Contents: (OPTIONAL)
Version: (REQUIRED, IF EXISTS)
Edition/Release: Original (VERIFY THIS)
Primary Volume Descriptor (PVD):

Disc has no PVD
DAT:

<rom name="CDROM (Track 1).bin" size="3273984" crc="6421fe28" md5="2f1879a8c482fd94f6556a2fce016da3" sha1="60bfc971ac80fc161ab1454c1b4b819151b42b98" />
<rom name="CDROM (Track 2).bin" size="1803984" crc="a5bbbbb8" md5="643ec82dc27ccc9d03f2210cc03a4b78" sha1="587fe747fee018d91b9adad5dcda23988192fca0" />
<rom name="CDROM (Track 3).bin" size="520031904" crc="2477b327" md5="ae2d5179ff0fc4ae2ccd7773e1edf1c7" sha1="ca42a0e8171bc7b5ee67a1099e2bc087f72de9a6" />
<rom name="CDROM (Track 4).bin" size="107674560" crc="43ad5118" md5="e2a7a2692b9b3c41727c67a0ee088833" sha1="a583da0d64a251c957e97797125033c10b07776c" />

Cuesheet:

FILE "CDROM (Track 1).bin" BINARY
  REM SESSION 01
  TRACK 01 AUDIO
    INDEX 01 00:00:00
FILE "CDROM (Track 2).bin" BINARY
  TRACK 02 AUDIO
    INDEX 00 00:00:00
    INDEX 01 00:02:00
FILE "CDROM (Track 3).bin" BINARY
  TRACK 03 AUDIO
    INDEX 00 00:00:00
    INDEX 01 00:02:00
FILE "CDROM (Track 4).bin" BINARY
  REM LEAD-OUT 49:36:61
  REM SESSION 02
  TRACK 04 MODE2/2352
    INDEX 01 00:00:00

Write Offset: -22

Logs: https://drive.google.com/file/d/1hwFeZb … sp=sharing

http://forum.redump.org/topic/20950/dre … e-battles/

http://forum.redump.org/topic/20820/dre … -volume-1/

http://forum.redump.org/topic/20563/dre … cd-hermes/

4 (edited by user7 2019-04-12 06:02:42)

Title: Irides: Master of the Blocks
System: Sega Dreamcast
Media Type: CD-ROM
Category: Games
Region: World
Languages:
Disc Serial:
Ringcode Information:
    Mastering Code (laser branded/etched): 12/10/2009 11:31:56 AM#15196<tab>WWW.MAGPIE.FM 904152 02
    Mastering SID Code: IFPI ln08
Barcode: 6 28740 13562 4
Error Count: 0
Edition/Release: Original (UNLICENSED)

Primary Volume Descriptor (PVD):

Disc has no PVD
DAT:

<rom name="IRIDES (Track 01).bin" size="52593072" crc="8884d565" md5="8f6df2e69b9f99a97f8a58ea548fe506" sha1="052c2cd0b42163a2a53197fa2c9eb2e0a8244b39" />
<rom name="IRIDES (Track 02).bin" size="52223808" crc="68d0e2e5" md5="535a3a16f91e4a75dacfecd085fdb420" sha1="2b49c1a5ef5765a6624a9c2fa23096fa40f0d04d" />
<rom name="IRIDES (Track 03).bin" size="42966336" crc="8af9f5e5" md5="95f7ce81c8f7809c9eddc023af0b6824" sha1="65b16cd8515e702b006fd106bf5d052da6213bb9" />
<rom name="IRIDES (Track 04).bin" size="28569744" crc="5d2c5237" md5="6a4ac442b83d1c8b02efcb87db0aedc1" sha1="ff7dafdf9b5724efaf0fc5045a312f670fc92d20" />
<rom name="IRIDES (Track 05).bin" size="63548688" crc="d33d54c2" md5="1810cd22c12371089a7cadfbca6bb7fb" sha1="c5dc10a4910faee9e381b1a2b2a39f1be653de54" />
<rom name="IRIDES (Track 06).bin" size="37286256" crc="ec49132f" md5="2d08b0f3a532deb217b02930f7f9b42b" sha1="0f41b0bd07a2e87010259a69b6e046087b37eefc" />
<rom name="IRIDES (Track 07).bin" size="21245616" crc="898f5de4" md5="ed1877363e10caa62844678cc57702d5" sha1="ba6ebc461f5fe8a38bb97cad5e6ac4dc9c3d49d4" />
<rom name="IRIDES (Track 08).bin" size="45379488" crc="316d38e5" md5="fe65f599669b5081ca50504ad46ae8f0" sha1="1f9b2a46b58791880a1ad4b83ec2f84938e169c7" />
<rom name="IRIDES (Track 09).bin" size="33614784" crc="9f80e948" md5="abdd1ab75be2d1938791a6e0443beedf" sha1="d9eef640bd1ef98cba915817e0e63e5e4fa02633" />
<rom name="IRIDES (Track 10).bin" size="62010480" crc="7711154c" md5="938c1e00460495e581aadd5c78faf973" sha1="5bed88ce02c32f897a2754662a300589278a2cdd" />
<rom name="IRIDES (Track 11).bin" size="51424128" crc="2affda52" md5="5d85cb40af0bccc1620d03a9cf0071d4" sha1="e358ddf9320c7af7884962fd6d83ebd7c67e2058" />
<rom name="IRIDES (Track 12).bin" size="24653664" crc="74809bf5" md5="91a592ce17d39a72063121e3488ed4d6" sha1="9eb7f1d2396bd71c083d4afbd92b8360eb0ca974" />
<rom name="IRIDES (Track 13).bin" size="43126272" crc="dd18153a" md5="1e737dab21f1ddb9bd5ebdd61d3f4319" sha1="2da7fcaad0abfb91b566d553930301b2766df8b8" />
<rom name="IRIDES (Track 14).bin" size="154204176" crc="d76a42a7" md5="438fbfc9f2e8a7444688cac8b671cc32" sha1="0559455e3fb4a666a7d995f514f88e6a9cf864a3" />

Cuesheet:

FILE "IRIDES (Track 01).bin" BINARY
  REM SESSION 01
  TRACK 01 AUDIO
    INDEX 01 00:00:00
FILE "IRIDES (Track 02).bin" BINARY
  TRACK 02 AUDIO
    INDEX 01 00:00:00
FILE "IRIDES (Track 03).bin" BINARY
  TRACK 03 AUDIO
    INDEX 01 00:00:00
FILE "IRIDES (Track 04).bin" BINARY
  TRACK 04 AUDIO
    INDEX 01 00:00:00
FILE "IRIDES (Track 05).bin" BINARY
  TRACK 05 AUDIO
    INDEX 01 00:00:00
FILE "IRIDES (Track 06).bin" BINARY
  TRACK 06 AUDIO
    INDEX 01 00:00:00
FILE "IRIDES (Track 07).bin" BINARY
  TRACK 07 AUDIO
    INDEX 01 00:00:00
FILE "IRIDES (Track 08).bin" BINARY
  TRACK 08 AUDIO
    INDEX 01 00:00:00
FILE "IRIDES (Track 09).bin" BINARY
  TRACK 09 AUDIO
    INDEX 01 00:00:00
FILE "IRIDES (Track 10).bin" BINARY
  TRACK 10 AUDIO
    INDEX 01 00:00:00
FILE "IRIDES (Track 11).bin" BINARY
  TRACK 11 AUDIO
    INDEX 01 00:00:00
FILE "IRIDES (Track 12).bin" BINARY
  TRACK 12 AUDIO
    INDEX 01 00:00:00
FILE "IRIDES (Track 13).bin" BINARY
  TRACK 13 AUDIO
    INDEX 01 00:00:00
FILE "IRIDES (Track 14).bin" BINARY
  REM LEAD-OUT 52:46:68
  REM SESSION 02
  TRACK 14 MODE2/2352
    INDEX 01 00:00:00

Write Offset: -12

Logs: https://drive.google.com/file/d/1i06Beu … sp=sharing

5 (edited by user7 2019-04-12 15:11:36)

Title: Maqiupai
System: Sega Dreamcast
Media Type: CD-ROM
Category: Games
Region: World
Ringcode Information:
    Mastering Code (laser branded/etched): 3BB81<1773>MAQIUPAI<TAB>WWW.CDMAN.COM
    Mastering sid: IFPI L483
    Data-Side Mould SID Code: IFPI8114
Error Count: 0
Edition/Release: Original / Unlicensed

Primary Volume Descriptor (PVD):

Disc has no PVD
DAT:

<rom name="MAQIUPAI (Track 01).bin" size="18282096" crc="05107a2a" md5="6aa7aa2cd5a8fa89bd328ed58f0892a4" sha1="34ceb3999b45f6b192cf6d5d41e33a196cbe6fb5" />
<rom name="MAQIUPAI (Track 02).bin" size="17216640" crc="8e88944b" md5="d574a973d1fa4e720cbc70369348b2d5" sha1="e945414d276e0e046a6a09377d081a444711185b" />
<rom name="MAQIUPAI (Track 03).bin" size="23776368" crc="318d423d" md5="53978c15acc65d0ffc1db5f84a63a700" sha1="26b4f714b009ea7d29848e568e6f53ca57323fdb" />
<rom name="MAQIUPAI (Track 04).bin" size="19319328" crc="fad4e1bf" md5="178b8b50d0ffdacb89a11b977f62dd71" sha1="07c96eaacfdeafb081e65d2b523f843399296a44" />
<rom name="MAQIUPAI (Track 05).bin" size="15066912" crc="9dcb9606" md5="e8491ab490a18e1a4ebc7765ecdd1a49" sha1="a6aa1e4db64abe8415852d4d4223f3c5c471f14d" />
<rom name="MAQIUPAI (Track 06).bin" size="14406000" crc="62d4c986" md5="ab1d8ad83db1c6a47c66eedf53dd6033" sha1="8d5753a8ece88ca61e18e88fd97794a89e8f9d72" />
<rom name="MAQIUPAI (Track 07).bin" size="18011616" crc="63975acc" md5="bb5882584fd4defc5c80d8118828e24f" sha1="7141a3c698035e6b9482f9743d6989f4a77e5c57" />
<rom name="MAQIUPAI (Track 08).bin" size="16367568" crc="c204685e" md5="adb41f43836cb24b351a7eacce252474" sha1="12dedfae8bd02180baaf33e5308104310e053b15" />
<rom name="MAQIUPAI (Track 09).bin" size="15523200" crc="bb8391c4" md5="8d5ef5a5ff04d5d0534772b25a7908c0" sha1="2c355687422e4e6e9d7b06801d7b029a445e9ea8" />
<rom name="MAQIUPAI (Track 10).bin" size="17211936" crc="799b5b7a" md5="bdd2629110960d9c5a328daeba033832" sha1="25240592ff41e9d91fa0345df9d20e07acf6bedd" />
<rom name="MAQIUPAI (Track 11).bin" size="18166848" crc="529b31c9" md5="72d9be556c0fa36f599cb521c5331409" sha1="ad69adfc56e2995a820a236cecf2af591cfe1846" />
<rom name="MAQIUPAI (Track 12).bin" size="514017840" crc="0d27c4fa" md5="f74dd3d07a8bd46bb758914567107f2a" sha1="34017ccb7c0e5ce761474c1aae950c21c2c4c1d5" />

Cuesheet:

FILE "MAQIUPAI (Track 01).bin" BINARY
  REM SESSION 01
  TRACK 01 AUDIO
    INDEX 01 00:00:00
FILE "MAQIUPAI (Track 02).bin" BINARY
  TRACK 02 AUDIO
    INDEX 01 00:00:00
FILE "MAQIUPAI (Track 03).bin" BINARY
  TRACK 03 AUDIO
    INDEX 01 00:00:00
FILE "MAQIUPAI (Track 04).bin" BINARY
  TRACK 04 AUDIO
    INDEX 01 00:00:00
FILE "MAQIUPAI (Track 05).bin" BINARY
  TRACK 05 AUDIO
    INDEX 01 00:00:00
FILE "MAQIUPAI (Track 06).bin" BINARY
  TRACK 06 AUDIO
    INDEX 01 00:00:00
FILE "MAQIUPAI (Track 07).bin" BINARY
  TRACK 07 AUDIO
    INDEX 01 00:00:00
FILE "MAQIUPAI (Track 08).bin" BINARY
  TRACK 08 AUDIO
    INDEX 01 00:00:00
FILE "MAQIUPAI (Track 09).bin" BINARY
  TRACK 09 AUDIO
    INDEX 01 00:00:00
FILE "MAQIUPAI (Track 10).bin" BINARY
  TRACK 10 AUDIO
    INDEX 01 00:00:00
FILE "MAQIUPAI (Track 11).bin" BINARY
  TRACK 11 AUDIO
    INDEX 01 00:00:00
FILE "MAQIUPAI (Track 12).bin" BINARY
  REM LEAD-OUT 18:16:06
  REM SESSION 02
  TRACK 12 MODE2/2352
    INDEX 01 00:00:00

Write Offset: 0

Logs: https://drive.google.com/file/d/1yCssF0 … sp=sharing

Disc: GameShark CDX Video Game Enhancer
Region: USA
System: Dreamcast (Unlicensed)
Media: CD-ROM
Mastering SID Code: IFPI HF03
Black-bottom disc; can't read Mould or ring

https://mega.nz/#!XipmWSrb!CvepX-N1gsVC … 8yH0soDDII

NOTE: This is a Multi-session disc. As such it was dumped as a regular disc, then dumped again with the /ms parameter. Results are different.
Logs included for both dumps.

Disc: GameShark Video Game Enhancer Upgrade Disk
Region: USA
System: Dreamcast (Unlicensed)
Media: CD-ROM
No Mastering SID code
Mould: IFPI LL31
Mastering Code (laser branded/etched):
THIN ICE MEDIA   DREAMCAST   GAMESHARK   VERSION 4.0   01050401

https://mega.nz/#!P3gwCIpC!KEOzBIeSjFKY … l4aUkq0cWo

NOTE: This is a Multi-session disc. As such it was dumped as a regular disc, then dumped again with the /ms parameter. Results are different.
Logs included for both dumps.

Disc: Action Replay CDX Demo Version
Region: PAL
System: Dreamcast (Unlicensed)
Media: CD-ROM
Mastering SID Code: IFPI HF03
Black-bottom disc; can't read Mould or ring

Logs:
https://mega.nz/#!u240lITQ!WgwoeWb-PNgQ … aUHKtJvq7c

NOTE: This is a Multi-session disc. As such it was dumped as a regular disc, then dumped again with the /ms parameter. Results are different.
Logs included for both dumps.

Disc: Cheats 'N Codes Volume 1
Region: USA
System: Dreamcast (Unlicensed)
Media: CD-ROM
Mastering SID Code: IFPI HF04
Black-bottom disc; can't read Mould or ring

https://mega.nz/#!uypCRCCT!B1HdGho5n9ok … D8jfsHLRIM

NOTE: This is a Multi-session disc. As such it was dumped as a regular disc, then dumped again with the /ms parameter. Results are different.
Logs included for both dumps.

Should match: http://forum.redump.org/topic/20820/dre … -volume-1/

Disc: GameShark Video Game Enhancer Lite
Region: USA
System: Dreamcast (Unlicensed)
Media: CD-ROM

Mastering SID: IFPI HF04
Mould: IFPI LL31
Mastering Code (laser branded/etched):
THIN ICE MEDIA   DREAMCAST   GAMESHARK LITE   VERSION 1.0   01050401

Logs:
https://mega.nz/#!n3hykSqT!ldLufs1wqmXV … RnjJRAZilA

NOTE: This is a Multi-session disc. As such it was dumped as a regular disc, then dumped again with the /ms parameter. Results are different.
Logs included for both dumps.

11 (edited by LastCat 2019-05-27 20:01:06)

Title: Pier Solar And The Great Architects
Disc Number / Letter: 1
Disc Title: Pier Solar And The Great Architects
System: Sega Dreamcast (Unlicensed)
Media Type: CD-ROM
Category: Games
Region: USA
Languages: English
Disc Serial: T-574276
Ringcode Information:
    Mastering Code (laser branded/etched): WM005027000000000000 4*
    Mastering SID Code: IFPI LQ20
    Data-Side Mould SID Code: IFPI N133
    Label-Side Mould SID Code:
    Additional Mould:
    Toolstamp or Mastering Code (engraved/stamped):
Barcode: 0 850393 005027
Error Count: 0
Comments: English packaging but region-free
Contents:
Version:
Edition/Release: Original
Primary Volume Descriptor (PVD):

Disc has no PVD
DAT:

<rom name="PSHD (Track 1).bin" size="2455488" crc="057f98f9" md5="208019583acb8fb4702b342c0cd25acf" sha1="43ffc02fc3ddfe7a866d9d9fcc4f9dd59199f253" />
<rom name="PSHD (Track 2).bin" size="741724368" crc="bd329d13" md5="222028ad1f27aa9c65b05e7ef30b76b7" sha1="f9f4628b90085b560496b2a02b69808292a9d44b" />

Cuesheet:

CATALOG 0731453345126
REM SESSION 01
FILE "PSHD (Track 1).bin" BINARY
  TRACK 01 AUDIO
    ISRC USPR39630163
    INDEX 01 00:00:00
REM LEAD-OUT 00:00:00
REM SESSION 02
REM LEAD-IN 00:00:00
FILE "PSHD (Track 2).bin" BINARY
  TRACK 02 MODE2/2352
    INDEX 01 00:00:00

Write Offset: 0

Logs can be found here: https://megaupload.nz/T9obd1tanc/PSHD_7z

Game: Pro Action Replay Sampler Introduction
Foreign title (non-Latin): プロアクションリプレイ サンプラー 入門編
Category: Applications
Region: Japan
Language: Japanese
Serial: KRT-SDC01
Ring:

Mastering Code (laser branded/etched): THIN ICE MEDIA[TAB]DREAMCAST[TAB]ACTION REPLAY SAMPLER[TAB]JAPANESE[TAB]01072601
Mastering SID Code: IFPI LL31
Label-Side Mould SID Code: N/A
Data-Side Mould SID Code: IFPI HF03
Additional Mould: N/A
Toolstamp or Mastering Code (engraved/stamped): N/A

Barcode: 4 512323 003010
Build date (YYYY-MM-DD): Unsure
Errors count (edccchk v1.26): 0
Comments: Logs: https://mega.nz/#!KRNCBKzZ!M41z41juqPzs … KKE6Kp609w
Version: Unlicensed
PVD:

0320 : 20 20 20 20 20 20 20 20  20 20 20 20 20 32 30 30                200
0330 : 30 30 34 32 37 31 34 35  35 32 32 30 30 00 32 30   0042714552200.20
0340 : 30 30 30 34 32 37 31 34  35 35 32 32 30 30 00 30   00042714552200.0
0350 : 30 30 30 30 30 30 30 30  30 30 30 30 30 30 30 00   000000000000000.
0360 : 30 30 30 30 30 30 30 30  30 30 30 30 30 30 30 30   0000000000000000
0370 : 00 01 00 00 00 00 00 00  00 00 00 00 00 00 00 00   ................

Header:

0000 : 01 43 44 30 30 31 01 00  53 45 47 41 20 53 45 47   .CD001..SEGA SEG
0010 : 41 4B 41 54 41 4E 41 20  20 20 20 20 20 20 20 20   AKATANA         
0020 : 20 20 20 20 20 20 20 20  44 4F 57 4E 4C 4F 41 44           DOWNLOAD
0030 : 20 20 20 20 20 20 20 20  20 20 20 20 20 20 20 20                   
0040 : 20 20 20 20 20 20 20 20  00 00 00 00 00 00 00 00           ........
0050 : EE 04 00 00 00 00 04 EE  00 00 00 00 00 00 00 00   ................
0060 : 00 00 00 00 00 00 00 00  00 00 00 00 00 00 00 00   ................
0070 : 00 00 00 00 00 00 00 00  01 00 00 01 01 00 00 01   ................
0080 : 00 08 08 00 0A 00 00 00  00 00 00 0A 1E 36 00 00   .............6..
0090 : 00 00 00 00 00 00 36 1F  00 00 00 00 30 00 20 36   ......6.....0. 6
00A0 : 00 00 00 00 36 20 00 08  00 00 00 00 08 00 64 04   ....6 ........d.
00B0 : 1B 0E 35 0F 00 02 00 00  01 00 00 01 01 00 20 20   ..5...........  
00C0 : 20 20 20 20 20 20 20 20  20 20 20 20 20 20 20 20                   
00D0 : 20 20 20 20 20 20 20 20  20 20 20 20 20 20 20 20                   
00E0 : 20 20 20 20 20 20 20 20  20 20 20 20 20 20 20 20                   
00F0 : 20 20 20 20 20 20 20 20  20 20 20 20 20 20 20 20                   

ClrMamePro data:

<?xml version="1.0" encoding="UTF-8"?>
<!DOCTYPE datafile PUBLIC "-//Logiqx//DTD ROM Management Datafile//EN" "http://www.logiqx.com/Dats/datafile.dtd">
<datafile>
  <header>
    <name>-insert name-</name>
    <description>-insert description-</description>
    <version>-insert version-</version>
    <date>-insert date-</date>
    <author>-insert author-</author>
    <homepage>-insert homepage-</homepage>
    <url>-insert url-</url>
  </header>
  <game name="dcpar">
    <category>Games</category>
    <description>dcpar</description>
    <rom name="dcpar (Track 1).bin" size="5729472" crc="26d8f384" md5="59f0298f427611bbdf0ee5d77a67237d" sha1="f27f6633aa3edf09f1bda5a8112ea080a9223f4a" />
    <rom name="dcpar (Track 2).bin" size="2972928" crc="f7745258" md5="736cd0d7bd9d143a50bf7cfa42c18a26" sha1="88f6ef90e5c4d855408001b9db3ad72af3c747cd" />
  </game>
</datafile>

Cuesheet:

FILE "dcpar (Track 1).bin" BINARY
  REM SESSION 01
  TRACK 01 AUDIO
    INDEX 01 00:00:00
FILE "dcpar (Track 2).bin" BINARY
  REM LEAD-OUT 00:32:36
  REM SESSION 02
  TRACK 02 MODE2/2352
    INDEX 01 00:00:00

Offset: -12/-12

Are we going to add IP.BIN information for these?

Can these be added now that redump has Mil-CD support or do they need to be redumped?

They need to be redumped.

Most of them have incorrect or missing session related values (leadin,pregap,leadout).

Apparently there was a bug which affected the first track in session 2, but sarami has fixed that as it seems.

The latest (test) DIC version is always linked to the first page in DIC thread:
http://forum.redump.org/topic/10483/discimagecreator/

PX-760A (+30), PX-W4824TA (+98), GSA-H42L (+667), GDR-8164B (+102), SH-D162D (+6), SOHD-167T (+12)

16 (edited by user7 2019-08-09 01:16:45)

Please submit Mil-CDs and Dreamcast unlicensed here: http://redump.org/newdisc/DC_MIL-CD/

NOTE: you will need to redump with the latest dic test version using the /ms flag.

user7 wrote:

using the /sf flag.

I think its the "/ms" flag, which stands for multisession.
But sarami said multisession is autodetected now, like stated here:
http://forum.redump.org/post/72083/#p72083

/sf is for erroneous sectors i believe, mil-cds should not have erroneous sectors.

PX-760A (+30), PX-W4824TA (+98), GSA-H42L (+667), GDR-8164B (+102), SH-D162D (+6), SOHD-167T (+12)

Alright, well reminder all to redump and submit!

This thread can probably be unpinned now.

user7 wrote:

This thread can probably be unpinned now.

Has everything been redumped?

PX-760A (+30), PX-W4824TA (+98), GSA-H42L (+667), GDR-8164B (+102), SH-D162D (+6), SOHD-167T (+12)

No and probably won't since I don't have the discs anymore. Why keep bad dumps pinned? You're either going to add them or not.

The once with not zero'ed leadin&pregap&leadout can probably be added.

PX-760A (+30), PX-W4824TA (+98), GSA-H42L (+667), GDR-8164B (+102), SH-D162D (+6), SOHD-167T (+12)

Does Pier Solar need redumping too?

Yes please.