1 (edited by gingerbeardman 2019-02-14 01:38:27)

Existing: http://redump.org/disc/29981/
Ring photos: https://imgur.com/a/gjQef8l
Logs: http://www.mediafire.com/file/zgow4bkpn … gs.7z/file

Title: Jun Classic C.C. & Rope Club
Disc Title: JUNROPE
System: Sony PlayStation
Media Type: CD-ROM
Category: Games
Region: Japan
Languages: Japanese
Disc Serial: SLPM-86080
EXE Date: 1998-01-30
Ringcode Information:
    Mastering Code (laser branded/etched): obscured by print
    Label-Side Mould SID Code: obscured by print
    Data-Side Mould SID Code: IFPI 4577
Barcode: T4988604360033
Comments: front cover logo says "Junclassic"; spine, inside of manual, disc art all say "Jun Classic"
Error Count: 1
Edition/Release: Original
EDC: No
Anti-modchip: No
LibCrypt: No
Primary Volume Descriptor (PVD):

0320 : 20 20 20 20 20 20 20 20  20 20 20 20 20 31 39 39                199
0330 : 38 30 33 31 36 32 32 30  30 30 30 30 30 24 31 39   8031622000000$19
0340 : 39 38 30 33 31 36 32 32  30 30 30 30 30 30 24 30   98031622000000$0
0350 : 30 30 30 30 30 30 30 30  30 30 30 30 30 30 30 00   000000000000000.
0360 : 30 30 30 30 30 30 30 30  30 30 30 30 30 30 30 30   0000000000000000
0370 : 00 01 00 00 00 00 00 00  00 00 00 00 00 00 00 00   ................

DAT:

<rom name="JUNROPE (Track 01).bin" size="292880448" crc="ba3b5814" md5="3c0960974572b9d5b30cfacccbffaffe" sha1="dbfae62bc3c1938026135c9d0191e09401e57138" />
<rom name="JUNROPE (Track 02).bin" size="12333888" crc="223ee1af" md5="09a5a6406372163f392c6b14c8f2767f" sha1="f0e37b6970a4f82bedf836278c51c1ba0ec38c4f" />
<rom name="JUNROPE (Track 03).bin" size="1150128" crc="cdfc49db" md5="c93b7fe47e6b3fecc820740c3d574636" sha1="5100dcae23310a45c62720a79671bc7e5897c9b3" />
<rom name="JUNROPE (Track 04).bin" size="1150128" crc="eda972e7" md5="893ebe4da6f7e5a66d8a7fe6ff429455" sha1="169cc36037970c6247070c76eaabbfa9fa62293d" />
<rom name="JUNROPE (Track 05).bin" size="1150128" crc="5e615334" md5="6a45fac70fa7ef9748d3c0cfd4b9fe35" sha1="3a93dfac5a895e92b542ce71a4bbadc89a59fb65" />
<rom name="JUNROPE (Track 06).bin" size="1150128" crc="26203095" md5="4c2097dddcf9d7532b5dd19827ae4bd6" sha1="c607262d121aeb5903055cf9de2302361af11b46" />
<rom name="JUNROPE (Track 07).bin" size="2116800" crc="35747f21" md5="92de214d5a8d8670e8c9fc7e605543f8" sha1="5cde73c66aa8d31dc52fd201b51e1dacd2f201cf" />
<rom name="JUNROPE (Track 08).bin" size="1234800" crc="851d9185" md5="1e85accdf2c1bb8a92c5a7e9cc1e1177" sha1="f25e1e9bfd089774663947d9970280fe36cd25d8" />
<rom name="JUNROPE (Track 09).bin" size="1470000" crc="b2ba13a2" md5="589ac309b5725f7f5607ce3b4fa6467c" sha1="afa6bfc43526ec980f278dc757add231ab7ef988" />
<rom name="JUNROPE (Track 10).bin" size="1234800" crc="68c9c1e8" md5="a99b0c1deb308d935ed0377c21b8efe2" sha1="c669c92b0aa83b524bab894abeaea745ed8ea861" />
<rom name="JUNROPE (Track 11).bin" size="1446480" crc="2a0c7c28" md5="c3c861a190b2089c2b240abf2023e593" sha1="a6dc76ffc381b619e88124a4303a6190fb29812c" />
<rom name="JUNROPE (Track 12).bin" size="2241456" crc="11c82917" md5="b00e87492e9e646b5135f28edb1a4719" sha1="9d43c4ce6f093e1f1d25f88153c420ff094f66e5" />
<rom name="JUNROPE (Track 13).bin" size="1150128" crc="17f205e1" md5="232fb3183ec9375d8396073c8bbb3309" sha1="92370dbe0e78ee02dfbe72bdbed1bbd98e9f3226" />
<rom name="JUNROPE (Track 14).bin" size="1150128" crc="7b52423e" md5="0200983ba5c2aa19a2f8648f5f685e7b" sha1="8ac9dd7c1d41158bdbd3757deaefde1b7a733334" />
<rom name="JUNROPE (Track 15).bin" size="1589952" crc="92f5d866" md5="cb265a9b9dd7af6f18fa43b154931bbc" sha1="a11fac819e2de318529ab131cc8e5f5a8c4b676f" />
<rom name="JUNROPE (Track 16).bin" size="1150128" crc="f979c64c" md5="12c5a6ddca436ce4ee8c17381e20271f" sha1="1d44c7bda29493f180271a01c6f39ec440653833" />
<rom name="JUNROPE (Track 17).bin" size="1150128" crc="c03cf92c" md5="a84d3c09082b70278c6c4ca065fe245c" sha1="185dab9a78264353586a4d8a0a491d739e06a40c" />
<rom name="JUNROPE (Track 18).bin" size="4534656" crc="36b42f65" md5="e99e653e22d37b9bde35002f27505bb6" sha1="687e32b8562acdead9fda2f77a1420650a0d64c5" />
<rom name="JUNROPE (Track 19).bin" size="5108544" crc="ff20ad84" md5="c82f478259af4a368d5516d68377c12c" sha1="08e4d7b3f5117dcb4c444caab88e65f1962d61f0" />
<rom name="JUNROPE (Track 20).bin" size="5767104" crc="62e2f2d0" md5="6e99e6c00cd67c770eb88f1f0124666c" sha1="5355a4752cd2809a2098e5261a884b9d289b66f8" />
<rom name="JUNROPE (Track 21).bin" size="4609920" crc="be91e355" md5="7dd48fb6b5df407e2a33505437aa1cff" sha1="e2a5bc5b53ac72b85022117b15929e81bf84e5d0" />
<rom name="JUNROPE (Track 22).bin" size="4322976" crc="95de6187" md5="7e28e934ef17953a73d4ff11e0413b4f" sha1="61480c2e96672f5d5740f99fd76978addb2e011f" />
<rom name="JUNROPE (Track 23).bin" size="5139120" crc="1b21a187" md5="bb688e7b4aeb3c8b93ba25ff14814e81" sha1="fadfab0f16c2228577d42323b38df086ee96570f" />
<rom name="JUNROPE (Track 24).bin" size="5193216" crc="2b6e262f" md5="e95c6d83086f2734d4ace8cde14f50a7" sha1="f017eb55a66b56f983fa6eb7db7c4551f11a4015" />
<rom name="JUNROPE (Track 25).bin" size="4386480" crc="dfef22cd" md5="272e079cdad0b9d89d36f5ceffae2b47" sha1="331b827b83abda5e00bd11e60d50a45e2be5967d" />
<rom name="JUNROPE (Track 26).bin" size="5602464" crc="31ddd4f5" md5="5930d419af3cb66b244beb675340f1d7" sha1="ed93c3372e57987f2d2724defbfc12c96bd21feb" />
<rom name="JUNROPE (Track 27).bin" size="4581696" crc="165507d7" md5="d154246b33757403434ac26404f59f26" sha1="7c5a9cc80c354391ecbe1454d8d7c58307b1c7dc" />
<rom name="JUNROPE (Track 28).bin" size="5228496" crc="35f1169c" md5="4f70358fb0f245c184c97731afc79029" sha1="a2c96f47d75d9d87660be90a02c41cbfcf0223f9" />
<rom name="JUNROPE (Track 29).bin" size="4348848" crc="71bddf7e" md5="63118cc8477c3222a18a18f9a71f3690" sha1="a48ddda90b00ebcfe49e571208cb83b69fa041c8" />
<rom name="JUNROPE (Track 30).bin" size="5600112" crc="16b5a4f5" md5="21692d31279f674745a194e0aed36ee4" sha1="bf95e65c2aed624686f8a74ff411e69686242590" />
<rom name="JUNROPE (Track 31).bin" size="4584048" crc="dca63f34" md5="234a4e5a257c342bb4210b6966062da6" sha1="3a68cd87e347aefbe024b02b032a0ae0ab754bf2" />
<rom name="JUNROPE (Track 32).bin" size="5508384" crc="16785bed" md5="731b90e27cc256d3af5fd386295e5e6b" sha1="4c143283b5cb4b52bfdd6ce9e71d5dc038ca55b5" />
<rom name="JUNROPE (Track 33).bin" size="4193616" crc="c63b1b14" md5="dc570b79da70b7fea134c00242bedff4" sha1="3d16ff19a2d1eaed1a0127e3bb3ea71debf6efc6" />
<rom name="JUNROPE (Track 34).bin" size="6056400" crc="890afa97" md5="9b3fade7294057b07c09a97cf92815cd" sha1="89c1c9796045b869e351bda5341f87b003a2af31" />
<rom name="JUNROPE (Track 35).bin" size="5722416" crc="37cbe5df" md5="4c61c7e112094b253ce6cd32daeda7cc" sha1="3c041980f4fe9e27ba841c87e262d8c28e3e0d94" />
<rom name="JUNROPE (Track 36).bin" size="5374320" crc="86fdc013" md5="0bce667e06ce1f6c1cf23c4bbed115e3" sha1="23b60c7dfca977ef6f8a58349818303b1501daa1" />
<rom name="JUNROPE (Track 37).bin" size="4572288" crc="f7d055db" md5="f0e633300f6194252c6d1c28787e3584" sha1="75b322a1b7a00abe06c38a3a3c9e7378612d8bf9" />
<rom name="JUNROPE (Track 38).bin" size="6011712" crc="f73bdd28" md5="45e660ce76ab77a6b932c9a443d28132" sha1="a0b18ca0549a3a0f60a85e0030bfafa0466e7dd1" />
<rom name="JUNROPE (Track 39).bin" size="5259072" crc="b8050339" md5="e220f8cf42fb4c92c86e7d0531600434" sha1="0754660e63358a2f0f274f5b2f88c3245bc514df" />
<rom name="JUNROPE (Track 40).bin" size="5894112" crc="c8d40b68" md5="73c1b8af591edc9dd667370d8aa50fed" sha1="b359a33085769395abbda407c4d579c8482f5564" />
<rom name="JUNROPE (Track 41).bin" size="4576992" crc="b455ed59" md5="0e9854fccd65782fa10bac5d503e67d2" sha1="efffdd8e1a595e38ad4515dbc96f26489c56fe87" />
<rom name="JUNROPE (Track 42).bin" size="6077568" crc="5370063d" md5="df0e1e8d8475d0cd5d2a9f82f7cfc82b" sha1="0efbf4b4f615b2f08b27021c0f3f05d1ac9a6222" />
<rom name="JUNROPE (Track 43).bin" size="4600512" crc="7d44aab7" md5="25280095548f684e4f92c940c68bd1d5" sha1="4987b8cfd98bb54142b387ac5639cacceb26ae2b" />
<rom name="JUNROPE (Track 44).bin" size="6195168" crc="4cfcbc4f" md5="9d58e500e9d13926403e5b92691276dd" sha1="d18c2c67c69dde8750e842f0c5d5a2afbb2b1051" />
<rom name="JUNROPE (Track 45).bin" size="5369616" crc="11a88119" md5="874cf134458b4a77a62d21b0011e94f9" sha1="32f4d3aba567ea1b7c37eb09d73b62b216b32da6" />
<rom name="JUNROPE (Track 46).bin" size="4628736" crc="c964d270" md5="319b8d4abd32350b9aa6749c599aff58" sha1="87339d1f47b1cba4cc0ae3a1549bb2cdb2857068" />
<rom name="JUNROPE (Track 47).bin" size="5868240" crc="35035ffc" md5="4ad9a6ba382cfbd19dcb57d57cda01cb" sha1="644bc8c149f56fc36c0ebf3384570f0f8128a9da" />
<rom name="JUNROPE (Track 48).bin" size="5216736" crc="f761426e" md5="bcd2fd98df843c03c2a9db9a12eda725" sha1="f5efd86dc5af745e6b8ce5786ce1b39b55225e0e" />
<rom name="JUNROPE (Track 49).bin" size="5181456" crc="ca31f9ab" md5="92b1645cd7bac07d099d3ebb6621f317" sha1="a4b7a129c030545053b884f0a6e63af06c9fbdee" />
<rom name="JUNROPE (Track 50).bin" size="5578944" crc="c904a801" md5="fd51891ccd759e21e43b6efdccab9ec9" sha1="9fc08a5dd7bf9d4f5ca102fb2e7180f5dcf73baa" />
<rom name="JUNROPE (Track 51).bin" size="5635392" crc="07fb85c4" md5="a9a7390bb7775bc2423087b8e6e5c28a" sha1="a9e06d5d2fb66631bb339eb4043a30e77a6e5b51" />
<rom name="JUNROPE (Track 52).bin" size="6068160" crc="ddd78952" md5="7b7b9e927fe1899526c0f4427ca74f31" sha1="95b45b40e17ba2cf0417dc47c183a3d62b475e31" />
<rom name="JUNROPE (Track 53).bin" size="5644800" crc="b917a511" md5="c6b76f6e10be67ed1f09471a26f3cefc" sha1="86214c4f8556e413de35dd5088af752f71c8339b" />
<rom name="JUNROPE (Track 54).bin" size="2119152" crc="7820d44a" md5="2ba07b131834f5ed4350ccedbb26a998" sha1="3e864c6947ff137dc3e0d2147f34d29260c95521" />
<rom name="JUNROPE (Track 55).bin" size="1150128" crc="62cfa92b" md5="8adb3eb6a237424fdebcab308a497fd7" sha1="9d3c14d6afd978560dca24116a1d3327cf7c94d8" />
<rom name="JUNROPE (Track 56).bin" size="4901568" crc="5a34fafa" md5="375d221aee719c5922420eb2d0868729" sha1="aa597e8fcefbd636598d86c4a0a2691ceb590c14" />
<rom name="JUNROPE (Track 57).bin" size="23585856" crc="992b339d" md5="11b51f000aac63521566844bb1cc5412" sha1="40d8a82dc576d3c6439f9ad42bacb7da481191c3" />
<rom name="JUNROPE (Track 58).bin" size="31126368" crc="94944407" md5="b0dcce459d2c4938d807946ad76e9b4a" sha1="e55d67b69a44db676c12397c1727880dbfe80e2b" />
<rom name="JUNROPE (Track 59).bin" size="34753152" crc="2cccc789" md5="465dd919fb8440cdc63b9cec32a8fc67" sha1="f5e0428f35305199bba4409226b46a62fecf6333" />

Cuesheet:

FILE "JUNROPE (Track 01).bin" BINARY
  TRACK 01 MODE2/2352
    INDEX 01 00:00:00
FILE "JUNROPE (Track 02).bin" BINARY
  TRACK 02 AUDIO
    INDEX 00 00:00:00
    INDEX 01 00:02:00
FILE "JUNROPE (Track 03).bin" BINARY
  TRACK 03 AUDIO
    INDEX 00 00:00:00
    INDEX 01 00:02:00
FILE "JUNROPE (Track 04).bin" BINARY
  TRACK 04 AUDIO
    INDEX 00 00:00:00
    INDEX 01 00:02:00
FILE "JUNROPE (Track 05).bin" BINARY
  TRACK 05 AUDIO
    INDEX 00 00:00:00
    INDEX 01 00:02:00
FILE "JUNROPE (Track 06).bin" BINARY
  TRACK 06 AUDIO
    INDEX 00 00:00:00
    INDEX 01 00:02:00
FILE "JUNROPE (Track 07).bin" BINARY
  TRACK 07 AUDIO
    INDEX 00 00:00:00
    INDEX 01 00:02:00
FILE "JUNROPE (Track 08).bin" BINARY
  TRACK 08 AUDIO
    INDEX 00 00:00:00
    INDEX 01 00:02:00
FILE "JUNROPE (Track 09).bin" BINARY
  TRACK 09 AUDIO
    INDEX 00 00:00:00
    INDEX 01 00:02:00
FILE "JUNROPE (Track 10).bin" BINARY
  TRACK 10 AUDIO
    INDEX 00 00:00:00
    INDEX 01 00:02:00
FILE "JUNROPE (Track 11).bin" BINARY
  TRACK 11 AUDIO
    INDEX 00 00:00:00
    INDEX 01 00:02:00
FILE "JUNROPE (Track 12).bin" BINARY
  TRACK 12 AUDIO
    INDEX 00 00:00:00
    INDEX 01 00:02:00
FILE "JUNROPE (Track 13).bin" BINARY
  TRACK 13 AUDIO
    INDEX 00 00:00:00
    INDEX 01 00:02:00
FILE "JUNROPE (Track 14).bin" BINARY
  TRACK 14 AUDIO
    INDEX 00 00:00:00
    INDEX 01 00:02:00
FILE "JUNROPE (Track 15).bin" BINARY
  TRACK 15 AUDIO
    INDEX 00 00:00:00
    INDEX 01 00:02:00
FILE "JUNROPE (Track 16).bin" BINARY
  TRACK 16 AUDIO
    INDEX 00 00:00:00
    INDEX 01 00:02:00
FILE "JUNROPE (Track 17).bin" BINARY
  TRACK 17 AUDIO
    INDEX 00 00:00:00
    INDEX 01 00:02:00
FILE "JUNROPE (Track 18).bin" BINARY
  TRACK 18 AUDIO
    INDEX 00 00:00:00
    INDEX 01 00:02:00
FILE "JUNROPE (Track 19).bin" BINARY
  TRACK 19 AUDIO
    INDEX 00 00:00:00
    INDEX 01 00:02:00
FILE "JUNROPE (Track 20).bin" BINARY
  TRACK 20 AUDIO
    INDEX 00 00:00:00
    INDEX 01 00:02:00
FILE "JUNROPE (Track 21).bin" BINARY
  TRACK 21 AUDIO
    INDEX 00 00:00:00
    INDEX 01 00:02:00
FILE "JUNROPE (Track 22).bin" BINARY
  TRACK 22 AUDIO
    INDEX 00 00:00:00
    INDEX 01 00:02:00
FILE "JUNROPE (Track 23).bin" BINARY
  TRACK 23 AUDIO
    INDEX 00 00:00:00
    INDEX 01 00:02:00
FILE "JUNROPE (Track 24).bin" BINARY
  TRACK 24 AUDIO
    INDEX 00 00:00:00
    INDEX 01 00:02:00
FILE "JUNROPE (Track 25).bin" BINARY
  TRACK 25 AUDIO
    INDEX 00 00:00:00
    INDEX 01 00:02:00
FILE "JUNROPE (Track 26).bin" BINARY
  TRACK 26 AUDIO
    INDEX 00 00:00:00
    INDEX 01 00:02:00
FILE "JUNROPE (Track 27).bin" BINARY
  TRACK 27 AUDIO
    INDEX 00 00:00:00
    INDEX 01 00:02:00
FILE "JUNROPE (Track 28).bin" BINARY
  TRACK 28 AUDIO
    INDEX 00 00:00:00
    INDEX 01 00:02:00
FILE "JUNROPE (Track 29).bin" BINARY
  TRACK 29 AUDIO
    INDEX 00 00:00:00
    INDEX 01 00:02:00
FILE "JUNROPE (Track 30).bin" BINARY
  TRACK 30 AUDIO
    INDEX 00 00:00:00
    INDEX 01 00:02:00
FILE "JUNROPE (Track 31).bin" BINARY
  TRACK 31 AUDIO
    INDEX 00 00:00:00
    INDEX 01 00:02:00
FILE "JUNROPE (Track 32).bin" BINARY
  TRACK 32 AUDIO
    INDEX 00 00:00:00
    INDEX 01 00:02:00
FILE "JUNROPE (Track 33).bin" BINARY
  TRACK 33 AUDIO
    INDEX 00 00:00:00
    INDEX 01 00:02:00
FILE "JUNROPE (Track 34).bin" BINARY
  TRACK 34 AUDIO
    INDEX 00 00:00:00
    INDEX 01 00:02:00
FILE "JUNROPE (Track 35).bin" BINARY
  TRACK 35 AUDIO
    INDEX 00 00:00:00
    INDEX 01 00:02:00
FILE "JUNROPE (Track 36).bin" BINARY
  TRACK 36 AUDIO
    INDEX 00 00:00:00
    INDEX 01 00:02:00
FILE "JUNROPE (Track 37).bin" BINARY
  TRACK 37 AUDIO
    INDEX 00 00:00:00
    INDEX 01 00:02:00
FILE "JUNROPE (Track 38).bin" BINARY
  TRACK 38 AUDIO
    INDEX 00 00:00:00
    INDEX 01 00:02:00
FILE "JUNROPE (Track 39).bin" BINARY
  TRACK 39 AUDIO
    INDEX 00 00:00:00
    INDEX 01 00:02:00
FILE "JUNROPE (Track 40).bin" BINARY
  TRACK 40 AUDIO
    INDEX 00 00:00:00
    INDEX 01 00:02:00
FILE "JUNROPE (Track 41).bin" BINARY
  TRACK 41 AUDIO
    INDEX 00 00:00:00
    INDEX 01 00:02:00
FILE "JUNROPE (Track 42).bin" BINARY
  TRACK 42 AUDIO
    INDEX 00 00:00:00
    INDEX 01 00:02:00
FILE "JUNROPE (Track 43).bin" BINARY
  TRACK 43 AUDIO
    INDEX 00 00:00:00
    INDEX 01 00:02:00
FILE "JUNROPE (Track 44).bin" BINARY
  TRACK 44 AUDIO
    INDEX 00 00:00:00
    INDEX 01 00:02:00
FILE "JUNROPE (Track 45).bin" BINARY
  TRACK 45 AUDIO
    INDEX 00 00:00:00
    INDEX 01 00:02:00
FILE "JUNROPE (Track 46).bin" BINARY
  TRACK 46 AUDIO
    INDEX 00 00:00:00
    INDEX 01 00:02:00
FILE "JUNROPE (Track 47).bin" BINARY
  TRACK 47 AUDIO
    INDEX 00 00:00:00
    INDEX 01 00:02:00
FILE "JUNROPE (Track 48).bin" BINARY
  TRACK 48 AUDIO
    INDEX 00 00:00:00
    INDEX 01 00:02:00
FILE "JUNROPE (Track 49).bin" BINARY
  TRACK 49 AUDIO
    INDEX 00 00:00:00
    INDEX 01 00:02:00
FILE "JUNROPE (Track 50).bin" BINARY
  TRACK 50 AUDIO
    INDEX 00 00:00:00
    INDEX 01 00:02:00
FILE "JUNROPE (Track 51).bin" BINARY
  TRACK 51 AUDIO
    INDEX 00 00:00:00
    INDEX 01 00:02:00
FILE "JUNROPE (Track 52).bin" BINARY
  TRACK 52 AUDIO
    INDEX 00 00:00:00
    INDEX 01 00:02:00
FILE "JUNROPE (Track 53).bin" BINARY
  TRACK 53 AUDIO
    INDEX 00 00:00:00
    INDEX 01 00:02:00
FILE "JUNROPE (Track 54).bin" BINARY
  TRACK 54 AUDIO
    INDEX 00 00:00:00
    INDEX 01 00:02:00
FILE "JUNROPE (Track 55).bin" BINARY
  TRACK 55 AUDIO
    INDEX 00 00:00:00
    INDEX 01 00:02:00
FILE "JUNROPE (Track 56).bin" BINARY
  TRACK 56 AUDIO
    INDEX 00 00:00:00
    INDEX 01 00:02:00
FILE "JUNROPE (Track 57).bin" BINARY
  TRACK 57 AUDIO
    INDEX 00 00:00:00
    INDEX 01 00:02:00
FILE "JUNROPE (Track 58).bin" BINARY
  TRACK 58 AUDIO
    INDEX 00 00:00:00
    INDEX 01 00:02:00
FILE "JUNROPE (Track 59).bin" BINARY
  TRACK 59 AUDIO
    INDEX 00 00:00:00
    INDEX 01 00:02:00

Write Offset: 2

Would you be willing to try and use a scanner and a flashlight to try and get the ringcodes for that disc? It can be a pain in the ass do to, so if you don't want to, just say so.

Here's some info on how to get them: http://forum.redump.org/topic/14380/pla … psx-discs/

3 (edited by gingerbeardman 2019-02-14 17:44:38)

ajshell1 wrote:

Would you be willing to try and use a scanner and a flashlight to try and get the ringcodes for that disc? It can be a pain in the ass do to, so if you don't want to, just say so.

Here's some info on how to get them: http://forum.redump.org/topic/14380/pla … psx-discs/

Sure, I have a scanner but would need to get a Non-LED flashlight.

I'm away for a while, but when I'm back I'll get ring code scans for both PSX discs I've dumped so far, and do it for all future PSX dumps.

Feel free to leave this one open until then.

Thank you.

By the way, I've noticed that infrared lights will also work with this process, even if they don't produce any visible light.

Just in case those are easier for you to find.

Regardless, thank you for agreeing to get these ringcodes. It's a dirty job, but someone has to do it.

(I'm still away)