1 (edited by KailoKyra 2019-03-14 10:30:42)

A few CD-i discs :

La machine a remonter le temps : https://mega.nz/#F!BBpzyaAY!OO0-QPuQgSck727sgCGkQQ

Title: La machine a remonter le temps
Disc Number / Letter: 
Disc Title: 
System: Philips CD-i
Media Type: CD-ROM
Category: Games
Region: France
Languages: French
Disc Serial: 812 0132
Ringcode Information:
    Mastering Code (laser branded/etched): 8120132V106 50448820 02 /
    Mastering SID Code: IFPI L001
    Label-Side Mould SID Code: 
    Data-Side Mould SID Code: IFPI 01C6
    Additional Mould: MADE IN GERMANY BY PMDC
    Toolstamp or Mastering Code (engraved/stamped): A
Barcode: 8 712581 201326
Error Count: 0
Comments: 
Contents: 
Version: 
Edition/Release: Original
Primary Volume Descriptor (PVD):

0320 : 20 20 20 20 20 20 20 20  00 00 00 00 00 31 39 39           .....199
0330 : 34 31 32 31 31 31 37 32  36 31 33 30 30 00 31 39   4121117261300.19
0340 : 39 34 31 32 31 31 31 37  32 36 31 33 30 30 00 30   94121117261300.0
0350 : 30 30 30 30 30 30 30 30  30 30 30 30 30 30 30 00   000000000000000.
0360 : 31 39 39 34 31 32 31 31  31 34 31 37 31 39 30 30   1994121114171900
0370 : 00 01 00 00 00 00 00 00  00 00 00 00 00 00 00 00   ................

DAT:

<rom name="LA_MACHINE_A_REMONTER_LE_TEMPS.bin" size="673024800" crc="f46e6f29" md5="fe9d5fc7fa1bdb54675af79c835c4045" sha1="778feeafc239e6a3bb1a4e0ca918d7e53f4db44e" />

Cuesheet:

CATALOG 0000000000000
FILE "LA_MACHINE_A_REMONTER_LE_TEMPS.bin" BINARY
  TRACK 01 CDI/2352
    INDEX 01 00:00:00

Write Offset: 222



Naftaline chez elle : https://mega.nz/#F!dMpnVKRJ!5HmBKqupJmtd2qAYu4TWsg

Title: Naftaline chez elle
Disc Number / Letter: 
Disc Title:
System: Philips CD-i
Media Type: CD-ROM
Category: Games
Region: France
Languages: French
Disc Serial: 812 0087
Ringcode Information:
    Mastering Code (laser branded/etched): PMDC FRANCE    1++A    8120087 V1 07    00 L7
    Mastering SID Code: IFPI L004
    Label-Side Mould SID Code: IFPI 0265
    Data-Side Mould SID Code: 
    Additional Mould: 
    Toolstamp or Mastering Code (engraved/stamped):
Barcode: 8 712581 200879
Error Count: 0
Comments: 
Contents: 
Version: 
Edition/Release: Original
Primary Volume Descriptor (PVD):

0320 : 20 20 20 20 20 20 20 20  00 00 00 00 00 31 39 39           .....199
0330 : 36 30 34 30 35 31 33 35  38 35 35 30 30 00 30 30   6040513585500.00
0340 : 30 30 30 30 30 30 30 30  30 30 30 30 30 30 00 30   00000000000000.0
0350 : 30 30 30 30 30 30 30 30  30 30 30 30 30 30 30 00   000000000000000.
0360 : 30 30 30 30 30 30 30 30  30 30 30 30 30 30 30 30   0000000000000000
0370 : 00 01 00 00 00 00 00 00  00 00 00 00 00 00 00 00   ................

DAT:

<rom name="NAFTALINE_CHEZ_ELLE.bin" size="721828800" crc="3e1e74f9" md5="ba5c71c1b4727b1cb6c5839eda60afd6" sha1="a912889839c70276f26fb6505b11c97cc8a20ad8" />

Cuesheet:

CATALOG 0000000000000
FILE "NAFTALINE_CHEZ_ELLE.bin" BINARY
  TRACK 01 CDI/2352
    INDEX 01 00:00:00

Write Offset: 0

St. Petersbourg et les trésors de l'Ermitage : The Art of the Czars : https://mega.nz/#F!tU4ylATC!GuHQ15ksbYRGjYgg0UMi7g

Title: St. Petersbourg et les trésors de l'Ermitage : The Art of the Czars
Disc Number / Letter: 
Disc Title: 
System: Philips CD-i
Media Type: CD-ROM
Category: Games
Region: France
Languages: French
Disc Serial: 812 0056
Ringcode Information:
    Mastering Code (laser branded/etched): 8120056 50331 527 01 >
    Mastering SID Code: 
    Label-Side Mould SID Code:
    Data-Side Mould SID Code: 
    Additional Mould: MADE IN GERMANY BY PMDC
    Toolstamp or Mastering Code (engraved/stamped): E
Barcode: 8 712581 200565
Error Count: 0
Comments: 
Contents: 
Version: 
Edition/Release: Original
Primary Volume Descriptor (PVD):

0320 : 20 20 20 20 20 20 20 20  00 00 00 00 00 31 39 39           .....199
0330 : 33 30 35 32 36 30 39 35  39 32 31 30 30 00 31 39   3052609592100.19
0340 : 39 33 30 35 32 36 30 39  35 39 32 31 30 30 00 30   93052609592100.0
0350 : 30 30 30 30 30 30 30 30  30 30 30 30 30 30 30 00   000000000000000.
0360 : 31 39 39 33 30 35 32 36  30 39 35 39 32 31 30 30   1993052609592100
0370 : 00 01 00 00 00 00 00 00  00 00 00 00 00 00 00 00   ................

DAT:

<rom name="ST_PETERSBOURG_ET_LES_TRESORS_DE_L_HERMITAGE.bin" size="623538720" crc="6e61a130" md5="f712d976925827034fd60bddd3ff9558" sha1="94e970308580853e639d2634fd7140f7d514807d" />

Cuesheet:

CATALOG 0000000000000
FILE "ST_PETERSBOURG_ET_LES_TRESORS_DE_L_HERMITAGE.bin" BINARY
  TRACK 01 CDI/2352
    INDEX 01 00:00:00

Write Offset: 0

Yearn2Learn : Peanuts :  https://mega.nz/#F!wIpGFYiI!AcBgOfYD9OdzGqDmLa9Hyw

Title: Yearn2Learn : Peanuts
Disc Number / Letter: 
Disc Title: 
System: Philips CD-i
Media Type: CD-ROM
Category: Games
Region: Europe
Languages: French, German, Dutch, English
Disc Serial: 819 1013
Ringcode Information:
    Mastering Code (laser branded/etched): 8191013V106 50541751 01>
    Mastering SID Code: IFPI L002
    Label-Side Mould SID Code: 
    Data-Side Mould SID Code: IFPI 01D3
    Additional Mould: MADE IN GERMANY BY PMDC
    Toolstamp or Mastering Code (engraved/stamped): F
Barcode: 8 712581 910136
Error Count: 0
Comments: 
Contents: 
Version: 
Edition/Release: Original
Primary Volume Descriptor (PVD):

0320 : 20 20 20 20 20 20 20 20  00 00 00 00 00 31 39 39           .....199
0330 : 34 31 30 30 36 31 34 33  36 34 30 30 30 00 30 30   4100614364000.00
0340 : 30 30 30 30 30 30 30 30  30 30 30 30 30 30 00 30   00000000000000.0
0350 : 30 30 30 30 30 30 30 30  30 30 30 30 30 30 30 00   000000000000000.
0360 : 30 30 30 30 30 30 30 30  30 30 30 30 30 30 30 30   0000000000000000
0370 : 00 01 00 00 00 00 00 00  00 00 00 00 00 00 00 00   ................

DAT:

<rom name="YEARN2LEARN_PEANUTS.bin" size="269539200" crc="232df523" md5="b4bd0e15ae9a4b603a71fde66a663d07" sha1="08f950ce2371298a8803aad4cab4cbe9d3398ed2" />

Cuesheet:

CATALOG 0000000000000
FILE "YEARN2LEARN_PEANUTS.bin" BINARY
  TRACK 01 CDI/2352
    INDEX 01 00:00:00

Write Offset: 222

Hanna-Barbera's Cartoon Carnival : https://mega.nz/#F!lN43GCTC!-MrI7P2GVaMYQih1dHQiRw

Title: Hanna-Barbera's Cartoon Carnival
Disc Number / Letter: 
Disc Title: 
System: Philips CD-i
Media Type: CD-ROM
Category: Games
Region: Probably USA, or Europe
Languages: English
Disc Serial: 810 0165
Ringcode Information:
    Mastering Code (laser branded/etched): 6900942    50371870 01 >
    Mastering SID Code: 
    Label-Side Mould SID Code: 
    Data-Side Mould SID Code: 
    Additional Mould: MADE IN GERMANY BY PMDC
    Toolstamp or Mastering Code (engraved/stamped): G
Barcode: 8 712581 001650
Error Count: 0
Comments: 
Contents: 
Version: 
Edition/Release: Original
Primary Volume Descriptor (PVD):

0320 : 20 20 20 20 20 20 20 20  00 00 00 00 00 31 39 39           .....199
0330 : 33 30 39 31 35 31 32 31  38 30 39 30 30 00 31 39   3091512180900.19
0340 : 39 33 30 39 31 35 31 32  31 38 30 39 30 30 00 30   93091512180900.0
0350 : 30 30 30 30 30 30 30 30  30 30 30 30 30 30 30 00   000000000000000.
0360 : 31 39 39 33 30 39 31 35  31 32 31 38 30 39 30 30   1993091512180900
0370 : 00 01 00 00 00 00 00 00  00 00 00 00 00 00 00 00   ................

DAT:

<rom name="CARTOON_CARNIVAL.bin" size="641084640" crc="304a68f5" md5="fdbbade3ab06126d651b69cf2682f928" sha1="566994eb3c2e70accb79ecdbae2071f943f22dad" />

Cuesheet:

CATALOG 0000000000000
FILE "CARTOON_CARNIVAL.bin" BINARY
  TRACK 01 CDI/2352
    INDEX 01 00:00:00

Write Offset: 0

Are you sure about all these are Games? "Naftaline chez elle" cover photos I could find say "Digital Video on CD-i" or is it a different product?

3 (edited by KailoKyra 2019-03-17 13:51:50)

For "Naftaline chez elle", I've tested it in an emulator, this is some kind of activity center for kids, so I suppose it goes in the "game" category.
There's some animated video clips, same with "Hanna-Barbera's Cartoon Carnival" (Also an activity center with some minigames). Hence the "Digital Video on CD-i" label I guess.

There's also a note on the back of the case in french "If you own a Philips CD-i, it must be equiped with a Digital Video Cartridge".
So maybe that's just to differentiate which ones needs a decoder cartridge, or just a plain CD-i.


For "St. Petersbourg et les trésors de l'Ermitage : The Art of the Czars", it's probably not a game. I've left it at the default value, but I guess it's more of an interactive visit. Can't get it to run on the CD-i emu.
Same for "Harvest of the Sun" that I posted in the verifiy category, this one is listed as "Multimedia" on redump, so I guess I need to change it to that as well ? What are the different categories on redump ?

I've also noticed we already have some "CD-i Digital Video"-labeled ones added into the main CD-i section, like https://www.catawiki.com/catalog/dvd-vi … cret-world

Still unsure about these, whether to put them into the main CD-i section or keep in the separate "Philips CD-i Digital Video" one.
https://www.catawiki.com/catalog/dvd-vi … 83-top-gun or https://www.catawiki.com/catalog/dvd-vi … riot-games -- visually, such movie discs are the same with the same "CD-Interactive" logo on the disc front.

I think it would be best to have either a separate "Philips CD-i Movies" category to distinguish games / tools / really interactive discs from movies, or better, just merge it and have a common "Philips CD-i" category with a comment / field to add that it needs the MPEG-1 decoder cartridge (or built-in decoder for some players). The "Video" category already indicates that it's a movie / clip.

http://redump.org/disc/47248/ http://redump.org/disc/61687/ -- I guess this sign should go into the tags and I agree the "video" section should be merged with the main CD-i section, because it seems "Digital Video on CD-i" on its own doesn't mean the disc contains a pure movie nor the format is any different - the same single Mode2/2352 data track.