Ok, so this is my first dump using DIC-UI and I'm using version 1.12.1.

There is something definitely odd with this disc. If I recall correctly this disc did not work in a Sega CDX and it was also known to not be available in bin/cue format online, but I do not know the reason why.

I have uploaded all logs and maybe someone can make heads or tales of this one.
https://www94.zippyshare.com/v/STrrliWU/file.html


Title: My Paint: The Animated Paint Program
Disc Number / Letter:
Disc Title:
System: Sega CD / Mega CD
Media Type: CD-ROM
Category: Games
Region: USA
Languages: English
Disc Serial: T-10901
Build Date: 1994-00  // Is this an error?
Ringcode Information:
    Mastering Code (laser branded/etched): MYPAINT R1C   MFD BY JVC
    Mastering SID Code:
    Label-Side Mould SID Code:
    Data-Side Mould SID Code:
    Additional Mould:
    Toolstamp or Mastering Code (engraved/stamped): 21
Barcode:
Error Count: 313
Comments:
Contents:
Version:
Edition/Release: Original
Header:

0100 : 53 45 47 41 20 4D 45 47  41 20 44 52 49 56 45 20   SEGA MEGA DRIVE
0110 : 28 43 29 54 2D 31 30 39  20 31 39 39 34 2E 4D 48   (C)T-109 1994.MH
0120 : 4D 59 50 41 49 4E 54 20  53 45 47 41 20 43 44 20   MYPAINT SEGA CD
0130 : 20 20 20 20 20 20 20 20  20 20 20 20 20 20 20 20                   
0140 : 20 20 20 20 20 20 20 20  20 20 20 20 20 20 20 20                   
0150 : 4D 59 50 41 49 4E 54 20  4D 45 47 41 20 43 44 20   MYPAINT MEGA CD
0160 : 20 20 20 20 20 20 20 20  20 20 20 20 20 20 20 20                   
0170 : 20 20 20 20 20 20 20 20  20 20 20 20 20 20 20 20                   
0180 : 41 49 20 54 2D 31 30 39  30 31 35 2D 30 30 20 20   AI T-109015-00 
0190 : 4A 2C 4D 20 20 20 20 20  20 20 20 20 20 20 20 20   J,M             
01A0 : 20 20 20 20 20 20 20 20  20 20 20 20 20 20 20 20                   
01B0 : 20 20 20 20 20 20 20 20  20 20 20 20 20 20 20 20                   
01C0 : 20 20 20 20 20 20 20 20  20 20 20 20 20 20 20 20                   
01D0 : 20 20 20 20 20 20 20 20  20 20 20 20 20 20 20 20                   
01E0 : 20 20 20 20 20 20 20 20  20 20 20 20 20 20 20 20                   
01F0 : 55 20 20 20 20 20 20 20  20 20 20 20 20 20 20 20   U               


Primary Volume Descriptor (PVD):

0320 : 20 20 20 20 20 20 20 20  20 20 20 20 20 31 39 39                199
0330 : 34 30 32 32 32 31 39 30  35 30 30 30 30 00 31 39   4022219050000.19
0340 : 39 34 30 32 32 32 31 39  30 35 30 30 30 30 00 30   94022219050000.0
0350 : 30 30 30 30 30 30 30 30  30 30 30 30 30 30 30 00   000000000000000.
0360 : 31 39 39 34 30 32 32 32  31 39 30 35 30 30 30 30   1994022219050000
0370 : 00 01 00 00 00 00 00 00  00 00 00 00 00 00 00 00   ................

DAT:

<rom name="MY_PAINT (Track 01).bin" size="44685648" crc="7f731aca" md5="98eebdb6b2cf70b9e8ac434560ddeced" sha1="962f38920bf6a96c0a1ee0e22d8c0d22c615681a" />
<rom name="MY_PAINT (Track 02).bin" size="410760336" crc="4ace1496" md5="ca5fdca18cd7bc44f4a04aa815f33981" sha1="793879f0f753f6cd8e8a3a8273aa28433b700c12" />
<rom name="MY_PAINT (Track 03).bin" size="19954368" crc="f67a94d3" md5="5f260de708f20bf91a88a8b8f3e79f61" sha1="fe6afa49f927873497f5f84874d73af567dc3b1d" />
<rom name="MY_PAINT (Track 04).bin" size="19606272" crc="4991f819" md5="9145954cebf365363f98edaf97109189" sha1="11015c7f9f4ecf386bf8d06f6707fdeee252eb37" />
<rom name="MY_PAINT (Track 05).bin" size="19025328" crc="ebb4b354" md5="6291b0d5c140fbc2f9eae0ec66cb92c1" sha1="8625bc0fde768c1016ff0669314c091968c4db27" />
<rom name="MY_PAINT (Track 06).bin" size="19479264" crc="fee61372" md5="0ab21032f07f1ce9c58d92a96a32c0e9" sha1="c2ab72b365517ea4e2c4d07f04e9bac91bbf2c74" />
<rom name="MY_PAINT (Track 07).bin" size="19022976" crc="4e1adf61" md5="137c11b833ab8c896f813adfb150c327" sha1="b039786218aa7be37b64bd6a146795ac7bf6579a" />
<rom name="MY_PAINT (Track 08).bin" size="17033184" crc="5002cce5" md5="c326454fdb689652a89c9a7c0156cff7" sha1="24b0fadeb8a8a0ffd1c08bc5336f5e335e563e83" />
<rom name="MY_PAINT (Track 09).bin" size="21351456" crc="38a225c4" md5="04174b4e2de75b72df5bda7543b5220d" sha1="2c53701248885e34b5d88d9dbb76a3c31bab35d5" />
<rom name="MY_PAINT (Track 10).bin" size="27210288" crc="5854dd44" md5="b6e1f3512a6d9963ad099bf468f3d8d4" sha1="da9320c47296ec9d262f2f2f8b16c70ccf59afb1" />

Cuesheet:

CATALOG 0000000000000
FILE "MY_PAINT (Track 01).bin" BINARY
  TRACK 01 MODE1/2352
    INDEX 01 00:00:00
FILE "MY_PAINT (Track 02).bin" BINARY
  TRACK 02 AUDIO
    INDEX 00 00:00:00
    INDEX 01 00:02:00
FILE "MY_PAINT (Track 03).bin" BINARY
  TRACK 03 AUDIO
    INDEX 00 00:00:00
    INDEX 01 00:02:00
FILE "MY_PAINT (Track 04).bin" BINARY
  TRACK 04 AUDIO
    INDEX 00 00:00:00
    INDEX 01 00:02:00
FILE "MY_PAINT (Track 05).bin" BINARY
  TRACK 05 AUDIO
    INDEX 00 00:00:00
    INDEX 01 00:02:00
FILE "MY_PAINT (Track 06).bin" BINARY
  TRACK 06 AUDIO
    INDEX 00 00:00:00
    INDEX 01 00:02:00
FILE "MY_PAINT (Track 07).bin" BINARY
  TRACK 07 AUDIO
    INDEX 00 00:00:00
    INDEX 01 00:02:02
FILE "MY_PAINT (Track 08).bin" BINARY
  TRACK 08 AUDIO
    INDEX 00 00:00:00
    INDEX 01 00:02:00
FILE "MY_PAINT (Track 09).bin" BINARY
  TRACK 09 AUDIO
    INDEX 00 00:00:00
    INDEX 01 00:02:02
FILE "MY_PAINT (Track 10).bin" BINARY
  TRACK 10 AUDIO
    INDEX 00 00:00:00
    INDEX 01 00:02:00

Write Offset: -799

http://forum.redump.org/post/67371/#p67371 -- could you redump it with the latest test version to retest the DIC's errors counter?

Just noticed this. Yes I will try dumping again later this week.

4 (edited by johnsanc 2019-03-09 19:14:50)

submissions info text didnt work with the latest build, but heres the info the EccEdc.txt

[ERROR] Number of sector(s) where bad MSF: 77
    Sector: 5342, 5343, 18924, 18925, 18926, 18927, 18928, 18929, 18930, 18931, 18932, 18933, 18934, 18935, 18936, 18937, 18938, 18939, 18940, 18941, 18942, 18943, 18944, 18945, 18946, 18947, 18948, 18949, 18950, 18951, 18952, 18953, 18954, 18955, 18956, 18957, 18958, 18959, 18960, 18961, 18962, 18963, 18964, 18965, 18966, 18967, 18968, 18969, 18970, 18971, 18972, 18973, 18974, 18975, 18976, 18977, 18978, 18979, 18980, 18981, 18982, 18983, 18984, 18985, 18986, 18987, 18988, 18989, 18990, 18991, 18992, 18993, 18994, 18995, 18996, 18997, 18998,
[ERROR] Number of sector(s) where user data doesn't match the expected ECC/EDC: 223
    Sector: 222, 1317, 1318, 1436, 1437, 1691, 2005, 2022, 2193, 2312, 2493, 2534, 2594, 2603, 2757, 2765, 2791, 2799, 2800, 2825, 2826, 2827, 2834, 2842, 2844, 2861, 2868, 2886, 2887, 2895, 2896, 2904, 2912, 2913, 2921, 2922, 2929, 2938, 2939, 2945, 2946, 2947, 2955, 2956, 2964, 2972, 2973, 2981, 2989, 2990, 2998, 2999, 3006, 3007, 3015, 3024, 3032, 3033, 3041, 3049, 3050, 3058, 3065, 3066, 3067, 3082, 3125, 3142, 3143, 3160, 3168, 3169, 3177, 3202, 3203, 3211, 3220, 3228, 3229, 3237, 3238, 3290, 3314, 3315, 3357, 3435, 3452, 3453, 3454, 3503, 3504, 3538, 3564, 3572, 3573, 3684, 3840, 4254, 4497, 4576, 4602, 4610, 4628, 4679, 4688, 4705, 4740, 4749, 4757, 4758, 4766, 4783, 4801, 4809, 4810, 4818, 4819, 4827, 4853, 4870, 4871, 4896, 4905, 4914, 4931, 4940, 4941, 4949, 4957, 4958, 4975, 4983, 4984, 4992, 4993, 5001, 5002, 5009, 5010, 5018, 5027, 5028, 5036, 5037, 5044, 5045, 5053, 5054, 5062, 5071, 5079, 5080, 5088, 5089, 5097, 5114, 5115, 5123, 5131, 5132, 5140, 5141, 5175, 5184, 5192, 5201, 5202, 5210, 5218, 5219, 5227, 5228, 5236, 5245, 5253, 5254, 5262, 5263, 5271, 5272, 5288, 5289, 5297, 5306, 5307, 5314, 5315, 5323, 5324, 5332, 5333, 5341, 5349, 5350, 5358, 5359, 5367, 5368, 5375, 5376, 5384, 5393, 5394, 5402, 5419, 5428, 5429, 5437, 5515, 5524, 5533, 5541, 5542, 5550, 5594, 6244, 9914, 13539, 15141, 15794, 15813, 15859, 18923,
[ERROR] Number of sector(s) where mode is invalid: 1
    Sector: 18922,
[ERROR] Number of sector(s) where sync(0x00 - 0x0c) is invalid: 14
    Sector: 2843, 2930, 3042, 3358, 4603, 4629, 4706, 4784, 4932, 5019, 5193, 5280, 5385, 15860,
Total errors: 315
Total warnings: 0

Hashes for all tracks are exactly the same with this dump.

F1ReB4LL wrote:

http://forum.redump.org/post/67371/#p67371 -- could you redump it with the latest test version to retest the DIC's errors counter?

@F1ReB4LL --- should the error count now be 315 and aside from that, is this now settled and can be updated and archived?  Just trying to tie up loose ends.