log:
https://drive.google.com/open?id=17rQkz … 5K1zGcAcxU


Title: Monster Lair
System: NEC PC-Engine / TurboGrafx CD
Media Type: CD-ROM
Category: Games
Region: USA
Languages: English
Disc Serial: 8490071
Ringcode Information:
    Mastering Ring: 8490071-1-1012-R1D
    Toolstamp or Mastering Code: 1 27
Barcode: 0 92218 00050 7
Error Count: 0
Edition/Release: Original
Primary Volume Descriptor (PVD):


Cuesheet:

CATALOG 0000000000000
FILE "Monster Lair (Track 01).bin" BINARY
  TRACK 01 AUDIO
    INDEX 01 00:00:00
FILE "Monster Lair (Track 02).bin" BINARY
  TRACK 02 MODE1/2352
    INDEX 00 00:00:00
    INDEX 01 00:03:06
FILE "Monster Lair (Track 03).bin" BINARY
  TRACK 03 AUDIO
    INDEX 00 00:00:00
    INDEX 01 00:02:00
FILE "Monster Lair (Track 04).bin" BINARY
  TRACK 04 AUDIO
    INDEX 01 00:00:00
FILE "Monster Lair (Track 05).bin" BINARY
  TRACK 05 AUDIO
    INDEX 01 00:00:00
FILE "Monster Lair (Track 06).bin" BINARY
  TRACK 06 AUDIO
    INDEX 01 00:00:00
FILE "Monster Lair (Track 07).bin" BINARY
  TRACK 07 AUDIO
    INDEX 01 00:00:00
FILE "Monster Lair (Track 08).bin" BINARY
  TRACK 08 AUDIO
    INDEX 01 00:00:00
FILE "Monster Lair (Track 09).bin" BINARY
  TRACK 09 AUDIO
    INDEX 01 00:00:00
FILE "Monster Lair (Track 10).bin" BINARY
  TRACK 10 AUDIO
    INDEX 01 00:00:00
FILE "Monster Lair (Track 11).bin" BINARY
  TRACK 11 AUDIO
    INDEX 01 00:00:00
FILE "Monster Lair (Track 12).bin" BINARY
  TRACK 12 AUDIO
    INDEX 01 00:00:00
FILE "Monster Lair (Track 13).bin" BINARY
  TRACK 13 AUDIO
    INDEX 01 00:00:00
FILE "Monster Lair (Track 14).bin" BINARY
  TRACK 14 AUDIO
    INDEX 01 00:00:00
FILE "Monster Lair (Track 15).bin" BINARY
  TRACK 15 AUDIO
    INDEX 01 00:00:00
FILE "Monster Lair (Track 16).bin" BINARY
  TRACK 16 MODE1/2352
    INDEX 00 00:00:00
    INDEX 01 00:03:00

Write Offset: -414

DAT:

<rom name="Monster Lair (Track 01).bin" size="7914480" crc="17623548" md5="77232c745e40cc155ad72c1b79780986" sha1="e1baaf01eee215def8bd6f6aa080e3a41ffc74f4" />
<rom name="Monster Lair (Track 02).bin" size="20163696" crc="5e46ab78" md5="3f3dfb767630c469fe7747ceef1e9797" sha1="456b64de05699e3431d14e76a71cdb9ea7cbad4c" />
<rom name="Monster Lair (Track 03).bin" size="1742832" crc="35aa9154" md5="da755e6735f335bdab4d81b1757b0575" sha1="21f407f7d2d68ebc9469f1d79d902ce017eeb0f6" />
<rom name="Monster Lair (Track 04).bin" size="1350048" crc="2816ac1b" md5="f2c0a43e7c9d7415a30f6f63f8cb6fb1" sha1="158485ce49f4e5135e818b078eb2aaa2d043d705" />
<rom name="Monster Lair (Track 05).bin" size="30507792" crc="b4c5fcc3" md5="8993c4d9076f17fc7c0c0dc213b49923" sha1="b54ea414149e68551d8256f17ac7c72e1574a07a" />
<rom name="Monster Lair (Track 06).bin" size="29131872" crc="97431703" md5="a0ffcf8a3fa39196cb4f695ecd6e8d63" sha1="8483a575247caf6e09d60c7f606ea97923dc20ba" />
<rom name="Monster Lair (Track 07).bin" size="55384896" crc="70d48d89" md5="2a83e4911a1116d45a2da12cc68841bb" sha1="0fa38378bca4a2e4169fcf0c234022a42621ed96" />
<rom name="Monster Lair (Track 08).bin" size="31342752" crc="a2fa5114" md5="28bff7930ce832412cef4be55a8c704a" sha1="acc0985bfcfd9d2e2206317fa7d90c0450ad57a8" />
<rom name="Monster Lair (Track 09).bin" size="42034944" crc="81c13762" md5="a56dac43077f434c07e880aec9371386" sha1="ecf5c92a022205288ddf4a2f1758edbcb802dada" />
<rom name="Monster Lair (Track 10).bin" size="30503088" crc="cdbdc235" md5="aa80cb17c630ac362fa4510200fe1ef2" sha1="30fdb41300f19b3fdae215bddcc8958df719a5d7" />
<rom name="Monster Lair (Track 11).bin" size="29298864" crc="00bb8aa8" md5="f6187765656b484df6fa743873632fee" sha1="649a1cf30d6863e48c4867bb62a14be6a0df16a0" />
<rom name="Monster Lair (Track 12).bin" size="29411760" crc="a43c1b18" md5="70e6cc7a96cb08f28b0682bbe842f9df" sha1="8b6c7fb79447b845009e82766497869192f9e761" />
<rom name="Monster Lair (Track 13).bin" size="31286304" crc="feee8a2c" md5="a83b99a492b238350d06aff2f347136d" sha1="43498133cb2fcbda14fbff522d7092ad373650b9" />
<rom name="Monster Lair (Track 14).bin" size="29792784" crc="46bfa01c" md5="ffc3b0086c64e97d4dcf5e78b782cc25" sha1="45bd693cf4f7d534fcc270df8542b409ca2844c3" />
<rom name="Monster Lair (Track 15).bin" size="39388944" crc="138f0445" md5="875cf878e76d5ce30f6cc8f221bfe997" sha1="d9a4908b6e81eb7d845ce7fe3761e7c943ae5000" />
<rom name="Monster Lair (Track 16).bin" size="19796784" crc="c566fc29" md5="76e0c31c11fc87c3547a04f02b93facb" sha1="e7f9c1315818f58617aa37289bd30a93c1a228b1" />

http://forum.redump.org/post/66644/#p66644 -- could you redump it with the latest DIC test version, so I could compare the logs and find out, what was wrong and what was fixed?

F1ReB4LL wrote:

http://forum.redump.org/post/66644/#p66644 -- could you redump it with the latest DIC test version, so I could compare the logs and find out, what was wrong and what was fixed?

Done.  monsterlair_new.zip is in the same location as the original dump

Monster Lair_test in the same location as original dump.  Done with the new test build.