LOG:
https://drive.google.com/open?id=17rQkz … 5K1zGcAcxU


Title: Amiga Power Techno Nation: Game Massive: The Essential CD32 Collection Volume 1
Disc Number / Letter: (OPTIONAL)
Disc Title: (OPTIONAL)
System: Commodore Amiga CD32
Media Type: CD-ROM
Category: Games
Region: Europe
Languages: English
Disc Serial: (REQUIRED, IF EXISTS)
Ringcode Information:
    Mastering Ring: AA0029 CDR00542
    Mastering SID Code: IFPIL122
    Mould SID Code: (REQUIRED, IF EXISTS)
    Additional Mould: (REQUIRED, IF EXISTS)
    Toolstamp or Mastering Code: 1:0
Barcode: (OPTIONAL)
Error Count: 0
Comments: (OPTIONAL)
Contents: (OPTIONAL)
Version: (REQUIRED, IF EXISTS)
Edition/Release: Original (VERIFY THIS)
Primary Volume Descriptor (PVD):

0320 : 00 00 00 00 00 00 00 00  00 00 00 00 00 31 39 39   .............199
0330 : 35 30 33 32 38 31 32 33  30 35 34 30 30 00 00 00   5032812305400...
0340 : 00 00 00 00 00 00 00 00  00 00 00 00 00 00 00 00   ................
0350 : 00 00 00 00 00 00 00 00  00 00 00 00 00 00 00 00   ................
0360 : 00 00 00 00 00 00 00 00  00 00 00 00 00 00 00 00   ................
0370 : 00 01 00 00 44 52 00 00  54 4D 00 14 00 00 08 00   ....DR..TM......

Cuesheet:

CATALOG 0000000000000
FILE "AmigaPowerCD1 (Track 01).bin" BINARY
  TRACK 01 MODE1/2352
    INDEX 01 00:00:00
FILE "AmigaPowerCD1 (Track 02).bin" BINARY
  TRACK 02 AUDIO
    INDEX 00 00:00:00
    INDEX 01 00:02:00
FILE "AmigaPowerCD1 (Track 03).bin" BINARY
  TRACK 03 AUDIO
    INDEX 01 00:00:00
FILE "AmigaPowerCD1 (Track 04).bin" BINARY
  TRACK 04 AUDIO
    INDEX 01 00:00:00
FILE "AmigaPowerCD1 (Track 05).bin" BINARY
  TRACK 05 AUDIO
    INDEX 01 00:00:00
FILE "AmigaPowerCD1 (Track 06).bin" BINARY
  TRACK 06 AUDIO
    INDEX 01 00:00:00
FILE "AmigaPowerCD1 (Track 07).bin" BINARY
  TRACK 07 AUDIO
    INDEX 01 00:00:00
FILE "AmigaPowerCD1 (Track 08).bin" BINARY
  TRACK 08 AUDIO
    INDEX 01 00:00:00
FILE "AmigaPowerCD1 (Track 09).bin" BINARY
  TRACK 09 AUDIO
    INDEX 01 00:00:00
FILE "AmigaPowerCD1 (Track 10).bin" BINARY
  TRACK 10 AUDIO
    INDEX 01 00:00:00
FILE "AmigaPowerCD1 (Track 11).bin" BINARY
  TRACK 11 AUDIO
    INDEX 01 00:00:00
FILE "AmigaPowerCD1 (Track 12).bin" BINARY
  TRACK 12 AUDIO
    INDEX 01 00:00:00
FILE "AmigaPowerCD1 (Track 13).bin" BINARY
  TRACK 13 AUDIO
    INDEX 01 00:00:00
FILE "AmigaPowerCD1 (Track 14).bin" BINARY
  TRACK 14 AUDIO
    INDEX 01 00:00:00
FILE "AmigaPowerCD1 (Track 15).bin" BINARY
  TRACK 15 AUDIO
    INDEX 01 00:00:00
FILE "AmigaPowerCD1 (Track 16).bin" BINARY
  TRACK 16 AUDIO
    INDEX 01 00:00:00
FILE "AmigaPowerCD1 (Track 17).bin" BINARY
  TRACK 17 AUDIO
    INDEX 01 00:00:00
FILE "AmigaPowerCD1 (Track 18).bin" BINARY
  TRACK 18 AUDIO
    INDEX 01 00:00:00
FILE "AmigaPowerCD1 (Track 19).bin" BINARY
  TRACK 19 AUDIO
    INDEX 01 00:00:00
FILE "AmigaPowerCD1 (Track 20).bin" BINARY
  TRACK 20 AUDIO
    INDEX 01 00:00:00
FILE "AmigaPowerCD1 (Track 21).bin" BINARY
  TRACK 21 AUDIO
    INDEX 01 00:00:00
FILE "AmigaPowerCD1 (Track 22).bin" BINARY
  TRACK 22 AUDIO
    INDEX 01 00:00:00
FILE "AmigaPowerCD1 (Track 23).bin" BINARY
  TRACK 23 AUDIO
    INDEX 01 00:00:00
FILE "AmigaPowerCD1 (Track 24).bin" BINARY
  TRACK 24 AUDIO
    INDEX 01 00:00:00
FILE "AmigaPowerCD1 (Track 25).bin" BINARY
  TRACK 25 AUDIO
    INDEX 01 00:00:00
FILE "AmigaPowerCD1 (Track 26).bin" BINARY
  TRACK 26 AUDIO
    INDEX 01 00:00:00
FILE "AmigaPowerCD1 (Track 27).bin" BINARY
  TRACK 27 AUDIO
    INDEX 01 00:00:00
FILE "AmigaPowerCD1 (Track 28).bin" BINARY
  TRACK 28 AUDIO
    INDEX 01 00:00:00
FILE "AmigaPowerCD1 (Track 29).bin" BINARY
  TRACK 29 AUDIO
    INDEX 01 00:00:00
FILE "AmigaPowerCD1 (Track 30).bin" BINARY
  TRACK 30 AUDIO
    INDEX 01 00:00:00

Write Offset: 0

DAT:

<rom name="AmigaPowerCD1 (Track 01).bin" size="94456320" crc="b9850d3d" md5="88d1004a27ef84e8b5dbf5d03d97e7a9" sha1="1ee209655354ecc9bd2250b569260f9dcfac0733" />
<rom name="AmigaPowerCD1 (Track 02).bin" size="1479408" crc="ff8ec39f" md5="29fbb3ee247a327468afdcf617cfaca1" sha1="e72f6be594d73e80af67fede614b33d5369e0dad" />
<rom name="AmigaPowerCD1 (Track 03).bin" size="1126608" crc="99c72d7d" md5="50ade86e31a5fda7b9da707107587538" sha1="3df291d911fec4a1e2d416208fcfc359ec050a90" />
<rom name="AmigaPowerCD1 (Track 04).bin" size="1126608" crc="ca2ade7b" md5="696fc71b12eec04fe6faf8f2d0f90294" sha1="2917d03c3bc70ec360688a3241a9367e5f807055" />
<rom name="AmigaPowerCD1 (Track 05).bin" size="1126608" crc="a5764c1f" md5="3f491b64fe707f52f62eea43554ac801" sha1="81d258ed6bd4bdb7fe5f123e48c88c9c63dc5c77" />
<rom name="AmigaPowerCD1 (Track 06).bin" size="1126608" crc="7cab6374" md5="dabcacd653c41ea0f732d25b47fa2849" sha1="0bccc2bdb0bebea8de90513b330f0fcde97901e3" />
<rom name="AmigaPowerCD1 (Track 07).bin" size="1126608" crc="07e8c92e" md5="60aaa407a2e0322f5a3b69593c8bb82a" sha1="ddc7c24514a1b40907167a367955d4e39283aa51" />
<rom name="AmigaPowerCD1 (Track 08).bin" size="1126608" crc="2eb5202f" md5="42e08b5d7a2aa87ebb093321fbc1e2a0" sha1="1c918951bbd0638853b1f41652782256c0dddbb0" />
<rom name="AmigaPowerCD1 (Track 09).bin" size="1126608" crc="690d520f" md5="065c9bc69273e042c564ca51022d68cc" sha1="06d584fe4f6866b76143d658afe77de2b7aba399" />
<rom name="AmigaPowerCD1 (Track 10).bin" size="1126608" crc="c707bfca" md5="1832d68b0cdc0f65ae91d3f599298713" sha1="684f869d1f0982639c70e50face7e22b43fbe46a" />
<rom name="AmigaPowerCD1 (Track 11).bin" size="1126608" crc="0ded8e24" md5="b7e11d9a0624cf4ac13482a2905bc5ec" sha1="3b4c70051e5b00f4383c165d435d1c950f8a62d0" />
<rom name="AmigaPowerCD1 (Track 12).bin" size="1126608" crc="b8ef9a1e" md5="dedf6450e6d23f0a51cec5e6517eee07" sha1="42621b515d9baba9b0d7c3604c8ab7d337825cbc" />
<rom name="AmigaPowerCD1 (Track 13).bin" size="1126608" crc="927ad0fd" md5="9e8c2c0b7f1b737c4d11041f449e58de" sha1="de5d4f9c38fdce19d3c3811a46b17a878c50eeff" />
<rom name="AmigaPowerCD1 (Track 14).bin" size="1126608" crc="a6658bf8" md5="a9314124e8edb735154e11e9dcd449ba" sha1="646fc828f390ef173d121ea253756989af1f8cbe" />
<rom name="AmigaPowerCD1 (Track 15).bin" size="1126608" crc="08f8cf90" md5="0801a553e376abf07f70a2652a0d5ad8" sha1="168861c0c67cc277af031ecf0d3ee098e65d2797" />
<rom name="AmigaPowerCD1 (Track 16).bin" size="1126608" crc="938797d0" md5="0af277931963429f68d1453d202dc76d" sha1="bfe6af82d898762924abfa246ffc5cecc8294dd2" />
<rom name="AmigaPowerCD1 (Track 17).bin" size="1126608" crc="ee1300bd" md5="09d589fcfd88546b62616165ac396005" sha1="d26153dccb9009d5edf2a9e456153d286dd71b80" />
<rom name="AmigaPowerCD1 (Track 18).bin" size="1126608" crc="d5ffc9d4" md5="3e69aa2ed1c9998c85d597e7c96dc231" sha1="3889d8a528cc1712521b1e75a09590516862e404" />
<rom name="AmigaPowerCD1 (Track 19).bin" size="1126608" crc="83c24e22" md5="9c7e0bb1859dee1f023bd0d1a02d1547" sha1="630736228efd280d30bcde3073c7e24fd3fef76a" />
<rom name="AmigaPowerCD1 (Track 20).bin" size="1126608" crc="e436464e" md5="09b89e280712a6a926502484161dfbe2" sha1="dc903fa4e30d84f9b52438fab86b598de79b07d6" />
<rom name="AmigaPowerCD1 (Track 21).bin" size="1126608" crc="9d636eb9" md5="7ba6de5b7f2924737a832a81be3f4b6c" sha1="6c7ebb1d9fe837cda3bd0e66bba27b112c35dfd8" />
<rom name="AmigaPowerCD1 (Track 22).bin" size="1126608" crc="31658df7" md5="24c3da97516e2c1a2383cd573c1a62d9" sha1="9ce105824c88203a8be9f9bf0c851e08f2c78d40" />
<rom name="AmigaPowerCD1 (Track 23).bin" size="1126608" crc="0ec18d0a" md5="cf1658ab1eadc792fc874e68eb7811f8" sha1="430c090d8f7cb1a71e72c32edabeb8ca58fe93c6" />
<rom name="AmigaPowerCD1 (Track 24).bin" size="1126608" crc="471b239e" md5="0fcd74756ed7c10946365580bd35ec7c" sha1="9cf2217b2684fecdcdbb664337e2d9e397b00033" />
<rom name="AmigaPowerCD1 (Track 25).bin" size="1126608" crc="89a24828" md5="d3592047d8331c14a0cf3129e2f2d1b6" sha1="8a22221d897771e7956430d7f243f7a0e6dab4db" />
<rom name="AmigaPowerCD1 (Track 26).bin" size="1126608" crc="f5b01b98" md5="24325964593622b4c12c26693711559f" sha1="a7a5aa41e921cea6d1eca97d9c4596b115d22c6e" />
<rom name="AmigaPowerCD1 (Track 27).bin" size="1126608" crc="ada8c0de" md5="a9c16af8f6d421c462c773530dfd071a" sha1="10a925606d3503d8bc06fe5a675a7be769df9319" />
<rom name="AmigaPowerCD1 (Track 28).bin" size="1126608" crc="30e73c09" md5="29b27cee75ae2e2ba947ae6dbd4f96c3" sha1="ecc2120fc584676d106eabc5281d09eb1292854f" />
<rom name="AmigaPowerCD1 (Track 29).bin" size="1126608" crc="557ca88f" md5="17641f50133a626a12155fa27ca7ca53" sha1="f86143a605cd206aa7adeddbcace24bf48a8e0a3" />
<rom name="AmigaPowerCD1 (Track 30).bin" size="1105440" crc="d5fc80b0" md5="268dc68dd5bd46695b3cdfd7f5b9e645" sha1="6ef7e47fd01a4d0af4ab284794c13fe9346a4bb3" />