Log:
https://drive.google.com/open?id=17rQkz … 5K1zGcAcxU


Title: CD32 Gamer: Playable Game Demos, Demos, Multimedia & Shareware Volume 15
Disc Number / Letter: (OPTIONAL)
Disc Title: (OPTIONAL)
System: Commodore Amiga CD32
Media Type: CD-ROM
Category: Games
Region: EUROPE
Languages: ENGLISH
Disc Serial: (REQUIRED, IF EXISTS)
Ringcode Information:
    Mastering Ring: CD 32 GAMER # 15<TAB>MADE IN THE UK BY CD SYSTEMS<TAB>01133
    Mastering SID Code: (REQUIRED, IF EXISTS)
    Mould SID Code: (REQUIRED, IF EXISTS)
    Additional Mould: (REQUIRED, IF EXISTS)
    Toolstamp or Mastering Code: (REQUIRED, IF EXISTS)
Barcode: (OPTIONAL)
Error Count: 0
Comments: (OPTIONAL)
Contents: (OPTIONAL)
Version: (REQUIRED, IF EXISTS)
Edition/Release: Bundled with Magazine
Primary Volume Descriptor (PVD):

0320 : 00 00 00 00 00 00 00 00  00 00 00 00 00 31 39 39   .............199
0330 : 35 30 38 30 32 31 33 34  30 32 31 30 30 00 00 00   5080213402100...
0340 : 00 00 00 00 00 00 00 00  00 00 00 00 00 00 00 00   ................
0350 : 00 00 00 00 00 00 00 00  00 00 00 00 00 00 00 00   ................
0360 : 00 00 00 00 00 00 00 00  00 00 00 00 00 00 00 00   ................
0370 : 00 01 00 00 46 53 00 00  54 4D 00 14 00 00 56 88   ....FS..TM....V.

Cuesheet:

FILE "GAMER32-15 (Track 01).bin" BINARY
  TRACK 01 MODE1/2352
    INDEX 01 00:00:00
FILE "GAMER32-15 (Track 02).bin" BINARY
  TRACK 02 AUDIO
    INDEX 00 00:00:00
    INDEX 01 00:03:00
FILE "GAMER32-15 (Track 03).bin" BINARY
  TRACK 03 AUDIO
    INDEX 00 00:00:00
    INDEX 01 00:01:73
FILE "GAMER32-15 (Track 04).bin" BINARY
  TRACK 04 AUDIO
    INDEX 00 00:00:00
    INDEX 01 00:01:73
FILE "GAMER32-15 (Track 05).bin" BINARY
  TRACK 05 AUDIO
    INDEX 00 00:00:00
    INDEX 01 00:01:73
FILE "GAMER32-15 (Track 06).bin" BINARY
  TRACK 06 AUDIO
    INDEX 00 00:00:00
    INDEX 01 00:01:73
FILE "GAMER32-15 (Track 07).bin" BINARY
  TRACK 07 AUDIO
    INDEX 00 00:00:00
    INDEX 01 00:01:73
FILE "GAMER32-15 (Track 08).bin" BINARY
  TRACK 08 AUDIO
    INDEX 00 00:00:00
    INDEX 01 00:01:73
FILE "GAMER32-15 (Track 09).bin" BINARY
  TRACK 09 AUDIO
    INDEX 00 00:00:00
    INDEX 01 00:01:73
FILE "GAMER32-15 (Track 10).bin" BINARY
  TRACK 10 AUDIO
    INDEX 00 00:00:00
    INDEX 01 00:01:73
    INDEX 02 00:35:58
FILE "GAMER32-15 (Track 11).bin" BINARY
  TRACK 11 AUDIO
    INDEX 00 00:00:00
    INDEX 01 00:01:73
FILE "GAMER32-15 (Track 12).bin" BINARY
  TRACK 12 AUDIO
    INDEX 00 00:00:00
    INDEX 01 00:01:73

Write Offset: -22

DAT:

<rom name="GAMER32-15 (Track 01).bin" size="28837872" crc="bbb64661" md5="73cd1f1b697d5824126ddbbcf51a47e5" sha1="bb5fc5fc81114ed66203dc72517705485fd81697" />
<rom name="GAMER32-15 (Track 02).bin" size="38817408" crc="b0e0d9ea" md5="1b65cb867079b024212e419df4133006" sha1="ea863045871d0cb41ea0fa19668c4a84f776173d" />
<rom name="GAMER32-15 (Track 03).bin" size="71046864" crc="e4fb8604" md5="c933dfb4e32c7f44d5981f3cae555a38" sha1="e242408f7c4858f38bebda9fe04b8bafd7e984f0" />
<rom name="GAMER32-15 (Track 04).bin" size="24404352" crc="b4bcae02" md5="5a61e907edda506a7e12431529b7cdd1" sha1="52e3268121f67da80e3ad67c772088fcfffb3ef4" />
<rom name="GAMER32-15 (Track 05).bin" size="27508992" crc="1242aaca" md5="97895a88a33ddd4407e4cacec04cd534" sha1="2ab1b642da3a9e2f68454a5fd275adc23d39fcbc" />
<rom name="GAMER32-15 (Track 06).bin" size="46334400" crc="5e3d310c" md5="8a03749d6fcff9628bab7a7d117c5528" sha1="a6c795a6123045e02318e76bb5c491ef90cb6c6f" />
<rom name="GAMER32-15 (Track 07).bin" size="34207488" crc="d2742859" md5="98a5b2d3031cbe7d250ec1d1e9721466" sha1="9c53d5a59fd0cbdd4c496a0e7ee6955bc79c39e6" />
<rom name="GAMER32-15 (Track 08).bin" size="21553728" crc="c648575e" md5="5d64a1cc1a67e66d4d68dc517844ca1e" sha1="ca3d6c3928c6d0fee57fddc0a646e2ec99d37287" />
<rom name="GAMER32-15 (Track 09).bin" size="18427920" crc="a8727344" md5="952f5d3a0541518eae51dc1b56066307" sha1="ad9559311be80ababd20bfc3294a2c41e034a1bc" />
<rom name="GAMER32-15 (Track 10).bin" size="37330944" crc="a72f02b6" md5="540ed1e87335eaf7d55db5144486e3af" sha1="4949eb83455afc9f9144ae6bbd58aae38a0cae45" />
<rom name="GAMER32-15 (Track 11).bin" size="27508992" crc="1368db76" md5="80da073fb30c0fb53cc589d13e274f5b" sha1="59103e387cdbed73554a119d3cbaad7417dca863" />
<rom name="GAMER32-15 (Track 12).bin" size="3386880" crc="a02f9fc8" md5="ffe94afaad7ab61fab453ea6423b86c0" sha1="a8665a972f7cc0efd7acd9d7a93017a01770abb8" />