Log:
https://drive.google.com/open?id=17rQkz … 5K1zGcAcxU


Title: The Adventures of Willy Beamish
Disc Number / Letter: (OPTIONAL)
Disc Title: (OPTIONAL)
System: Sega CD / Mega CD
Media Type: CD-ROM
Category: Games
Region: USA
Languages: English
Disc Serial: T-6300
Ringcode Information:
    Mastering Ring: SEGAT110015 R1J
    Mastering SID Code: IFPI L239
    Mould SID Code: (REQUIRED, IF EXISTS)
    Additional Mould: (REQUIRED, IF EXISTS)
    Toolstamp or Mastering Code: 12
Barcode: 0 20626 43608 3
Error Count: 0
Comments: (OPTIONAL)
Contents: (OPTIONAL)
Version: (REQUIRED, IF EXISTS)
Edition/Release: Original (VERIFY THIS)
Primary Volume Descriptor (PVD):

0320 : 20 20 20 20 20 20 20 20  20 20 20 20 20 31 39 39                199
0330 : 33 30 31 32 32 31 38 33  34 32 30 30 30 00 31 39   3012218342000.19
0340 : 39 33 30 31 32 32 31 38  34 31 34 30 30 30 00 30   93012218414000.0
0350 : 30 30 30 30 30 30 30 30  30 30 30 30 30 30 30 00   000000000000000.
0360 : 30 30 30 30 30 30 30 30  30 30 30 30 30 30 30 30   0000000000000000
0370 : 00 01 00 00 00 00 00 00  00 00 00 00 00 00 00 00   ................

Cuesheet:

CATALOG 0000000000000
FILE "Willyt (Track 01).bin" BINARY
  TRACK 01 MODE1/2352
    INDEX 01 00:00:00
FILE "Willyt (Track 02).bin" BINARY
  TRACK 02 AUDIO
    INDEX 00 00:00:00
    INDEX 01 00:02:00
FILE "Willyt (Track 03).bin" BINARY
  TRACK 03 AUDIO
    INDEX 00 00:00:00
    INDEX 01 00:02:00
FILE "Willyt (Track 04).bin" BINARY
  TRACK 04 AUDIO
    INDEX 00 00:00:00
    INDEX 01 00:02:00
FILE "Willyt (Track 05).bin" BINARY
  TRACK 05 AUDIO
    INDEX 00 00:00:00
    INDEX 01 00:02:00
FILE "Willyt (Track 06).bin" BINARY
  TRACK 06 AUDIO
    INDEX 00 00:00:00
    INDEX 01 00:02:00
FILE "Willyt (Track 07).bin" BINARY
  TRACK 07 AUDIO
    INDEX 00 00:00:00
    INDEX 01 00:02:00
FILE "Willyt (Track 08).bin" BINARY
  TRACK 08 AUDIO
    INDEX 00 00:00:00
    INDEX 01 00:02:00
FILE "Willyt (Track 09).bin" BINARY
  TRACK 09 AUDIO
    INDEX 00 00:00:00
    INDEX 01 00:02:00
FILE "Willyt (Track 10).bin" BINARY
  TRACK 10 AUDIO
    INDEX 00 00:00:00
    INDEX 01 00:02:00
FILE "Willyt (Track 11).bin" BINARY
  TRACK 11 AUDIO
    INDEX 00 00:00:00
    INDEX 01 00:02:00
FILE "Willyt (Track 12).bin" BINARY
  TRACK 12 AUDIO
    INDEX 00 00:00:00
    INDEX 01 00:02:00
FILE "Willyt (Track 13).bin" BINARY
  TRACK 13 AUDIO
    INDEX 00 00:00:00
    INDEX 01 00:02:00
FILE "Willyt (Track 14).bin" BINARY
  TRACK 14 AUDIO
    INDEX 00 00:00:00
    INDEX 01 00:02:00
FILE "Willyt (Track 15).bin" BINARY
  TRACK 15 AUDIO
    INDEX 00 00:00:00
    INDEX 01 00:02:00

Write Offset: 0

DAT:

<rom name="Willyt (Track 01).bin" size="233269008" crc="abe534e3" md5="c5caa37328f05e17d9401c48cf08de99" sha1="14639e1596ac00f4b3d9aa141e2f4ea78ebb2575" />
<rom name="Willyt (Track 02).bin" size="1764000" crc="e7887563" md5="3078714f29b09408fbf800f7a2ce03d0" sha1="923937048d6b3fe908cbe4115a099a3b7a195d0b" />
<rom name="Willyt (Track 03).bin" size="3525648" crc="89c1b24e" md5="28d09da2d02ffc134877a62d44f12251" sha1="c62d2081c51eab5273bed80beccd5c1897e1accd" />
<rom name="Willyt (Track 04).bin" size="1178352" crc="8cc669ea" md5="890e81863b292f8fec020071ac16e317" sha1="fec43656ee2f4445b2719d8a6c260b311b06b694" />
<rom name="Willyt (Track 05).bin" size="25895520" crc="6239414c" md5="57d2a217599378d2f618313476a32d6b" sha1="d063e8eb4b5d4e1172710037bd76eeb7eeb55a80" />
<rom name="Willyt (Track 06).bin" size="4734576" crc="009c79f9" md5="645a0f6fd73b0210d100288db28b93ad" sha1="3e5adaaa60e85ca959d6ded40df6fe5d52b245ea" />
<rom name="Willyt (Track 07).bin" size="12637296" crc="e6ba68a6" md5="22b7de0c696d7f5c482e8bc085117d78" sha1="6656b360e1f7dc7f58e2e89c03b96c11efcf51da" />
<rom name="Willyt (Track 08).bin" size="9151632" crc="815b208a" md5="e4f0c92cde64db81c3d224ccd1388d78" sha1="9cf429b6c06dacb81515582f20765d32d018d6a3" />
<rom name="Willyt (Track 09).bin" size="13074768" crc="5c1846c7" md5="d90bc45a11d85ea409eb6b7eb5a867a0" sha1="f96cf1dd606847b2fdeae85487023e8daaaa266f" />
<rom name="Willyt (Track 10).bin" size="4696944" crc="63500d67" md5="14265ea8db00a7d90a2aa64aa69c6591" sha1="95c8b31da28b8efb168b876645df3cec8875345b" />
<rom name="Willyt (Track 11).bin" size="1065456" crc="70bdaff7" md5="d99ef6eb3900de3a959d9325d4cea0bf" sha1="66fd82a78b4ab15d224a073bdf6c8e51e46777af" />
<rom name="Willyt (Track 12).bin" size="1274784" crc="d44584d6" md5="9f2418210e8a18d4e384efbb81b8cd1f" sha1="63dec4154a654053f9f21d12adc398107d451698" />
<rom name="Willyt (Track 13).bin" size="1265376" crc="951b2939" md5="7cac7b933bdb3e4f4cbb4b6a3138e06c" sha1="db43fb123a94a201b56a211e9292564f1713715a" />
<rom name="Willyt (Track 14).bin" size="11614176" crc="06d871f2" md5="a85444037eda6208a916a930d2cd8680" sha1="c8b0951d68b8c02a219bb305d06673aadd66c559" />
<rom name="Willyt (Track 15).bin" size="1879248" crc="0cac283b" md5="9ff4338c38f8771002c12c4b83288754" sha1="f93767b77c005d0ddf2c7e3c282f46a1947a18cd" />