Hashes differ from both versions currently in DB

Log
https://drive.google.com/open?id=17rQkz … 5K1zGcAcxU

Title: Final Fight
Disc Number / Letter: (OPTIONAL)
Disc Title: (OPTIONAL)
System: Sega CD / Mega CD
Media Type: CD-ROM
Category: Games
Region: US
Languages: English
Disc Serial: 4410
Ringcode Information:
    Mastering Ring: (REQUIRED, IF EXISTS)
    Mastering SID Code: (REQUIRED, IF EXISTS)
    Mould SID Code: (REQUIRED, IF EXISTS)
    Additional Mould: (REQUIRED, IF EXISTS)
    Toolstamp or Mastering Code: 1008604410<tab>9/95 2RB2
Barcode: (OPTIONAL)
Error Count: 0
Comments: Yellow/Red Cardboard Box
Contents: (OPTIONAL)
Version: (REQUIRED, IF EXISTS)
Edition/Release: Original (VERIFY THIS)
Primary Volume Descriptor (PVD):

0320 : 20 20 20 20 20 20 20 20  20 20 20 20 20 31 39 39                199
0330 : 32 30 36 30 38 30 30 30  30 30 30 30 30 00 31 39   2060800000000.19
0340 : 39 33 30 34 32 33 32 32  34 34 33 33 30 30 00 30   93042322443300.0
0350 : 30 30 30 30 30 30 30 30  30 30 30 30 30 30 30 00   000000000000000.
0360 : 31 39 39 33 30 33 31 35  30 30 30 30 30 30 30 30   1993031500000000
0370 : 00 01 00 00 00 00 00 00  00 00 00 00 00 00 00 00   ................

Cuesheet:

CATALOG 0000000000000
FILE "FinalFight (Track 01).bin" BINARY
  TRACK 01 MODE1/2352
    INDEX 01 00:00:00
FILE "FinalFight (Track 02).bin" BINARY
  TRACK 02 AUDIO
    INDEX 00 00:00:00
    INDEX 01 00:01:74
FILE "FinalFight (Track 03).bin" BINARY
  TRACK 03 AUDIO
    INDEX 00 00:00:00
    INDEX 01 00:02:00
FILE "FinalFight (Track 04).bin" BINARY
  TRACK 04 AUDIO
    INDEX 00 00:00:00
    INDEX 01 00:02:00
FILE "FinalFight (Track 05).bin" BINARY
  TRACK 05 AUDIO
    INDEX 00 00:00:00
    INDEX 01 00:02:00
FILE "FinalFight (Track 06).bin" BINARY
  TRACK 06 AUDIO
    INDEX 00 00:00:00
    INDEX 01 00:02:00
FILE "FinalFight (Track 07).bin" BINARY
  TRACK 07 AUDIO
    INDEX 00 00:00:00
    INDEX 01 00:02:00
FILE "FinalFight (Track 08).bin" BINARY
  TRACK 08 AUDIO
    INDEX 00 00:00:00
    INDEX 01 00:02:00
FILE "FinalFight (Track 09).bin" BINARY
  TRACK 09 AUDIO
    INDEX 00 00:00:00
    INDEX 01 00:02:00
FILE "FinalFight (Track 10).bin" BINARY
  TRACK 10 AUDIO
    INDEX 00 00:00:00
    INDEX 01 00:02:00
FILE "FinalFight (Track 11).bin" BINARY
  TRACK 11 AUDIO
    INDEX 00 00:00:00
    INDEX 01 00:02:00
FILE "FinalFight (Track 12).bin" BINARY
  TRACK 12 AUDIO
    INDEX 00 00:00:00
    INDEX 01 00:02:00
FILE "FinalFight (Track 13).bin" BINARY
  TRACK 13 AUDIO
    INDEX 00 00:00:00
    INDEX 01 00:02:00
FILE "FinalFight (Track 14).bin" BINARY
  TRACK 14 AUDIO
    INDEX 00 00:00:00
    INDEX 01 00:02:00
FILE "FinalFight (Track 15).bin" BINARY
  TRACK 15 AUDIO
    INDEX 00 00:00:00
    INDEX 01 00:02:00
FILE "FinalFight (Track 16).bin" BINARY
  TRACK 16 AUDIO
    INDEX 00 00:00:00
    INDEX 01 00:02:00
FILE "FinalFight (Track 17).bin" BINARY
  TRACK 17 AUDIO
    INDEX 00 00:00:00
    INDEX 01 00:02:00
FILE "FinalFight (Track 18).bin" BINARY
  TRACK 18 AUDIO
    INDEX 00 00:00:00
    INDEX 01 00:02:00
FILE "FinalFight (Track 19).bin" BINARY
  TRACK 19 AUDIO
    INDEX 00 00:00:00
    INDEX 01 00:02:00
FILE "FinalFight (Track 20).bin" BINARY
  TRACK 20 AUDIO
    INDEX 00 00:00:00
    INDEX 01 00:02:00
FILE "FinalFight (Track 21).bin" BINARY
  TRACK 21 AUDIO
    INDEX 00 00:00:00
    INDEX 01 00:02:00
FILE "FinalFight (Track 22).bin" BINARY
  TRACK 22 AUDIO
    INDEX 00 00:00:00
    INDEX 01 00:02:00
FILE "FinalFight (Track 23).bin" BINARY
  TRACK 23 AUDIO
    INDEX 00 00:00:00
    INDEX 01 00:02:00
FILE "FinalFight (Track 24).bin" BINARY
  TRACK 24 AUDIO
    INDEX 00 00:00:00
    INDEX 01 00:02:00
FILE "FinalFight (Track 25).bin" BINARY
  TRACK 25 AUDIO
    INDEX 00 00:00:00
    INDEX 01 00:02:00
FILE "FinalFight (Track 26).bin" BINARY
  TRACK 26 AUDIO
    INDEX 00 00:00:00
    INDEX 01 00:02:00

Write Offset: 222

DAT:

<rom name="FinalFight (Track 01).bin" size="28565040" crc="a32905c4" md5="93322f05d9b7ee4a3257980ccde7b47d" sha1="bdc5727461cf685b734709b04ef344a3d05c53ef" />
<rom name="FinalFight (Track 02).bin" size="23284800" crc="87e19980" md5="82101b4a27d08e4bcc87d649cfd9e0ad" sha1="64d9c0b612915017399f059f810db7d7797ce42c" />
<rom name="FinalFight (Track 03).bin" size="24152688" crc="b0704e03" md5="0e93bf84c7554a4e94d66af783cf0ab2" sha1="30f911acc9d08ed217ce832a18adaceb9f051b7c" />
<rom name="FinalFight (Track 04).bin" size="23143680" crc="44b6c987" md5="4cff07608b4d711dc2913550f59c0c30" sha1="cf72ba3df945962602fe1f82b435984f46a65dbb" />
<rom name="FinalFight (Track 05).bin" size="22854384" crc="da5b7206" md5="7d5f0252a7d86b52c32e037b67d06264" sha1="02126bb60f62ec0488fb5e961c43f91a2167483b" />
<rom name="FinalFight (Track 06).bin" size="34633200" crc="3daa29a0" md5="3cfddd85f110e46c4389fc4988d2a3ab" sha1="55c2605a9b1ffdc6f97976f9417204ed15e92736" />
<rom name="FinalFight (Track 07).bin" size="22534512" crc="edd57e92" md5="f71d10aa5c3e317b5f49e38a2a66cb9c" sha1="d362c3ed384200fe405acd29f4b5097d15b7aa25" />
<rom name="FinalFight (Track 08).bin" size="20888112" crc="6ac22aee" md5="c60f1ae5468c24f04bb1d4fa937b71f9" sha1="c49afc6df53334016a276123a4102ce7ea265bcb" />
<rom name="FinalFight (Track 09).bin" size="23790480" crc="2c4a6b85" md5="45b4b4a46eb6f49cc6e1723f0b2a5c81" sha1="5aa8d3bfff7dd0b97cf38004c9ef0940a2cc0212" />
<rom name="FinalFight (Track 10).bin" size="23315376" crc="41e3ce3e" md5="981028d67d61ba316d5fb709313dede0" sha1="7adfe2d1f62fa5833e1d0ffdcdd7ba6839c87b24" />
<rom name="FinalFight (Track 11).bin" size="23204832" crc="8425801a" md5="9a4ce61c622454cb15db1793d48bb2af" sha1="ea3b972106061484d7b8bf507aceac54d1630638" />
<rom name="FinalFight (Track 12).bin" size="30437232" crc="323b6b83" md5="994e5349b29e28c5b4841893a7c31fcb" sha1="74e556e03ad958eaf53ff9681cefbc5ff31f7753" />
<rom name="FinalFight (Track 13).bin" size="1714608" crc="018b3115" md5="c693bfa00a8a96404d429f2cdef6b6d7" sha1="1bc5f27b8c7dc82365721262579e1f95e3667f32" />
<rom name="FinalFight (Track 14).bin" size="2119152" crc="9e433a60" md5="aa9a48899841a0408f925413c8ca447b" sha1="ebeefbdc1636ec3e357e7025a46f4daaff391cd9" />
<rom name="FinalFight (Track 15).bin" size="2606016" crc="0a81a95f" md5="79fd1459f8bfa665ff87dfed7fc6e939" sha1="45b100131cc7187202b6e2c0bb20379ca581c34e" />
<rom name="FinalFight (Track 16).bin" size="1834560" crc="51b5cf7d" md5="6afd85fb9a2c536adb8201733c2884a8" sha1="cd5267e01cafc9710f68195dc7ca297d526d9ddc" />
<rom name="FinalFight (Track 17).bin" size="21638400" crc="fa9a0fe8" md5="9f185d5a55f463461cef78cb3a0c0b7f" sha1="8ee90da9560ede288d2b9fc3abb170e8369a4ec4" />
<rom name="FinalFight (Track 18).bin" size="2827104" crc="3f0f858d" md5="c69d32fb92bb269763bf1c9c9081e983" sha1="ba7bc82767214ad1ca5ee6e3b82cb658170e0a74" />
<rom name="FinalFight (Track 19).bin" size="2293200" crc="43e4f6d7" md5="e32a5243c19961bbd9d5778bce318100" sha1="af8246fd966be6ec8462693a8869f13efae19e9e" />
<rom name="FinalFight (Track 20).bin" size="21974736" crc="3627fc76" md5="9eaa13479d0233be8f59287b277af8c6" sha1="1278cfcf13bd31829f40fdeb5724f3e39a02266f" />
<rom name="FinalFight (Track 21).bin" size="2765952" crc="3e9f0dc6" md5="38c2fed448a25f83d7de465385c74578" sha1="14ee0d7921e2680027f911b94fbd16efdb1ef9a8" />
<rom name="FinalFight (Track 22).bin" size="34581456" crc="057d6abc" md5="de99c683011e5ab78b12104d86f04e0f" sha1="7e5edd11c89e2cc09f4e37080a0003fe217f2894" />
<rom name="FinalFight (Track 23).bin" size="24646608" crc="e414f709" md5="0813dc6290f56a07ff95115c078f41e6" sha1="affd40b6f2956743f13930c34e5a57cf33505343" />
<rom name="FinalFight (Track 24).bin" size="20638800" crc="7bb885a7" md5="52c8b5db1037cc64db4cc3d1969e096f" sha1="24951d00e37a02832e1f8053b1eae784b7be78a0" />
<rom name="FinalFight (Track 25).bin" size="9250416" crc="3d7a47d4" md5="330a7e11fdd70f3199ae25e9cd347513" sha1="71eac051f7602116a5d84083b77a54f5f749bd35" />
<rom name="FinalFight (Track 26).bin" size="7180656" crc="720554c1" md5="735caf729a197d63f57fbb1924117bbb" sha1="477242310007f2ca074086b153266ea34dc89f8b" />