Log:

https://drive.google.com/open?id=17rQkz … 5K1zGcAcxU

Title: Wonder Dog
Disc Number / Letter: (OPTIONAL)
Disc Title: (OPTIONAL)
System: Sega CD / Mega CD
Media Type: CD-ROM
Category: Games
Region: USA
Languages: English
Disc Serial: (REQUIRED, IF EXISTS)
Ringcode Information:
    Mastering Ring: SEGA6402RE R1D   MFD BY JVC
    Mastering SID Code: (REQUIRED, IF EXISTS)
    Mould SID Code: (REQUIRED, IF EXISTS)
    Additional Mould: (REQUIRED, IF EXISTS)
    Toolstamp or Mastering Code: 12
Barcode: 0 09119 92052 0
Error Count: 0
Comments: Green Cardboard Box
Contents: (OPTIONAL)
Version: (REQUIRED, IF EXISTS)
Edition/Release: Original (VERIFY THIS)
Primary Volume Descriptor (PVD):

0320 : 20 20 20 20 20 20 20 20  20 20 20 20 20 31 39 39                199
0330 : 31 30 38 31 38 31 39 30  35 30 30 30 30 00 31 39   1081819050000.19
0340 : 39 32 31 32 30 34 31 39  31 37 30 33 30 30 00 30   92120419170300.0
0350 : 30 30 30 30 30 30 30 30  30 30 30 30 30 30 30 00   000000000000000.
0360 : 31 39 39 31 30 38 31 38  31 39 30 35 30 30 30 30   1991081819050000
0370 : 00 01 00 00 00 00 00 00  00 00 00 00 00 00 00 00   ................

Cuesheet:

CATALOG 0000000000000
FILE "WonderDog (Track 01).bin" BINARY
  TRACK 01 MODE1/2352
    INDEX 01 00:00:00
FILE "WonderDog (Track 02).bin" BINARY
  TRACK 02 AUDIO
    INDEX 00 00:00:00
    INDEX 01 00:02:00
FILE "WonderDog (Track 03).bin" BINARY
  TRACK 03 AUDIO
    INDEX 00 00:00:00
    INDEX 01 00:02:00
FILE "WonderDog (Track 04).bin" BINARY
  TRACK 04 AUDIO
    INDEX 00 00:00:00
    INDEX 01 00:02:00
FILE "WonderDog (Track 05).bin" BINARY
  TRACK 05 AUDIO
    INDEX 00 00:00:00
    INDEX 01 00:02:00
FILE "WonderDog (Track 06).bin" BINARY
  TRACK 06 AUDIO
    INDEX 00 00:00:00
    INDEX 01 00:02:00
FILE "WonderDog (Track 07).bin" BINARY
  TRACK 07 AUDIO
    INDEX 00 00:00:00
    INDEX 01 00:02:00
FILE "WonderDog (Track 08).bin" BINARY
  TRACK 08 AUDIO
    INDEX 00 00:00:00
    INDEX 01 00:02:00
FILE "WonderDog (Track 09).bin" BINARY
  TRACK 09 AUDIO
    INDEX 00 00:00:00
    INDEX 01 00:02:00
FILE "WonderDog (Track 10).bin" BINARY
  TRACK 10 AUDIO
    INDEX 00 00:00:00
    INDEX 01 00:02:00
FILE "WonderDog (Track 11).bin" BINARY
  TRACK 11 AUDIO
    INDEX 00 00:00:00
    INDEX 01 00:02:00
FILE "WonderDog (Track 12).bin" BINARY
  TRACK 12 AUDIO
    INDEX 00 00:00:00
    INDEX 01 00:02:00
FILE "WonderDog (Track 13).bin" BINARY
  TRACK 13 AUDIO
    INDEX 00 00:00:00
    INDEX 01 00:02:00
FILE "WonderDog (Track 14).bin" BINARY
  TRACK 14 AUDIO
    INDEX 00 00:00:00
    INDEX 01 00:02:00
FILE "WonderDog (Track 15).bin" BINARY
  TRACK 15 AUDIO
    INDEX 00 00:00:00
    INDEX 01 00:02:00
FILE "WonderDog (Track 16).bin" BINARY
  TRACK 16 AUDIO
    INDEX 00 00:00:00
    INDEX 01 00:02:00
FILE "WonderDog (Track 17).bin" BINARY
  TRACK 17 AUDIO
    INDEX 00 00:00:00
    INDEX 01 00:02:00
FILE "WonderDog (Track 18).bin" BINARY
  TRACK 18 AUDIO
    INDEX 00 00:00:00
    INDEX 01 00:02:00
FILE "WonderDog (Track 19).bin" BINARY
  TRACK 19 AUDIO
    INDEX 00 00:00:00
    INDEX 01 00:02:00
FILE "WonderDog (Track 20).bin" BINARY
  TRACK 20 AUDIO
    INDEX 00 00:00:00
    INDEX 01 00:02:00
FILE "WonderDog (Track 21).bin" BINARY
  TRACK 21 AUDIO
    INDEX 00 00:00:00
    INDEX 01 00:02:00

Write Offset: 308

DAT:

<rom name="WonderDog (Track 01).bin" size="32746896" crc="7e117d69" md5="818d3567d6c1460ac87390e713b3f33f" sha1="6aaf0f05f77dce42b2ea9dbb29ee9a03adce7340" />
<rom name="WonderDog (Track 02).bin" size="43319136" crc="459fc038" md5="27ad1136542f049a5ac767ef8cd9844d" sha1="ffbbf0f92f34367bc2631f021c0061c88f162e1d" />
<rom name="WonderDog (Track 03).bin" size="38189424" crc="8db9e164" md5="4e82640da6b4d69ded7dee34bf2fdfb0" sha1="7b613570704902c24c843ae1341f2b7bfd61aa8c" />
<rom name="WonderDog (Track 04).bin" size="36451296" crc="6d9c9505" md5="511760eb86bb1adc741c97edf544cffb" sha1="04f72117fb40b98eaa6fe5c2c27b521c9da7b539" />
<rom name="WonderDog (Track 05).bin" size="43178016" crc="49e717f9" md5="f42e3a2571b1d3a0211bddc63cef3659" sha1="b69785f5d08c055e54b6e9624355373abf7c340d" />
<rom name="WonderDog (Track 06).bin" size="52461360" crc="1057be5b" md5="10e3271d51654385aa576ac373ed1cae" sha1="4e3c0b39b6ff270374f1253f48b52ba694077462" />
<rom name="WonderDog (Track 07).bin" size="34395648" crc="d3340bbc" md5="cf8a0a213b02190bdcd02770138e3764" sha1="55c2d74104204c9b0772396c208516beec0a5776" />
<rom name="WonderDog (Track 08).bin" size="11179056" crc="dbc93359" md5="aaf98340e1debb7e95b8c16467651ad6" sha1="78212de1a9485d3a5e3064f9a46509d5ba7c682a" />
<rom name="WonderDog (Track 09).bin" size="11823504" crc="851df740" md5="4769a9d59fcab25fed61dfb5c893ba95" sha1="1e0cf2d22b49847c05d79a6d62f019cdd608dc97" />
<rom name="WonderDog (Track 10).bin" size="21880656" crc="c2f0d830" md5="22fd1f91de9e5c2790c95e9aa60b7162" sha1="d49e2269ab4f3c03df5babff080fa98944bcd9ea" />
<rom name="WonderDog (Track 11).bin" size="18757200" crc="893cdd21" md5="7e9637725bc0429071f113b5fbd05577" sha1="1737f03b44ddcd34fa98561e39c2c7d24d073fb2" />
<rom name="WonderDog (Track 12).bin" size="21179760" crc="524a9fd9" md5="2a61c9fbcae20f4e0626c1dcabed81b6" sha1="989eb0ca7d7bc1806a9c36ad3ceb21b5e3b3d30e" />
<rom name="WonderDog (Track 13).bin" size="17402448" crc="faf633db" md5="a44c8f33455dea92bd3b07c8d5693cc8" sha1="c195aa83808b45c60a0d2df5559751acacac6205" />
<rom name="WonderDog (Track 14).bin" size="17870496" crc="4d9e0e68" md5="b66bc9c145c62a09c517db5b0aedffdb" sha1="0b278dd7c234d07b5692b456cb3865b234047116" />
<rom name="WonderDog (Track 15).bin" size="18155088" crc="2abbccd5" md5="06d2fcc5bfbff83ee8b0cfa965948519" sha1="8f8972b1cd9335476d63aba3dec836d1b33b5d0e" />
<rom name="WonderDog (Track 16).bin" size="14669424" crc="8c4d13f7" md5="d6a8b879081c3c607544cdf15538e46d" sha1="e96cfe5cec63c122b06142b3e75716a03e26aaba" />
<rom name="WonderDog (Track 17).bin" size="45069024" crc="5719d78b" md5="4db942ba62bba97ca149889b78058d26" sha1="004dc2c5f264344b7fc98b6185b7be2fcf47e8bd" />
<rom name="WonderDog (Track 18).bin" size="14817600" crc="96767548" md5="dbd4a46526b2011cbc0ba9a343f497c0" sha1="50394ec8b97f8a05dcfed5f6d46e0e81e31f4a4d" />
<rom name="WonderDog (Track 19).bin" size="41294064" crc="ad11f680" md5="0dc26e50dbe6d5f1a828875f9fd29bd7" sha1="b19f5f2a5d473b25ee26c7f7f2e29822e2b23b14" />
<rom name="WonderDog (Track 20).bin" size="6343344" crc="d72f0125" md5="973e7f6f32607ff7e0d5dd5692f5de2f" sha1="36a25033113c8f92ee6cc3b36256ca19b9d22bff" />
<rom name="WonderDog (Track 21).bin" size="59258640" crc="55a8c342" md5="382746e36407cb85ca24d2634230ba7c" sha1="22499a2672c085b1632362e27398499745e47e1f" />