Log:
https://drive.google.com/open?id=17rQkz … 5K1zGcAcxU

Title: Guardian
System: Commodore Amiga CD32
Media Type: CD-ROM
Category: Games
Region: Europe
Languages: English
Ringcode Information:
    Mastering Ring: GH33 23 AUG 95<tab>MPO<tab>02 @@@
    Mastering SID Code: IFPI L033
    Toolstamp or Mastering Code: 00

Error Count: 0

Edition/Release: Original
Primary Volume Descriptor (PVD):

0320 : 00 00 00 00 00 00 00 00  00 00 00 00 00 31 39 39   .............199
0330 : 34 30 38 30 34 31 34 32  36 33 37 30 30 00 00 00   4080414263700...
0340 : 00 00 00 00 00 00 00 00  00 00 00 00 00 00 00 00   ................
0350 : 00 00 00 00 00 00 00 00  00 00 00 00 00 00 00 00   ................
0360 : 00 00 00 00 00 00 00 00  00 00 00 00 00 00 00 00   ................
0370 : 00 01 00 00 46 53 00 00  54 4D 00 14 00 00 08 00   ....FS..TM......

Cuesheet:

CATALOG 0000000000000
FILE "Guardian (Track 01).bin" BINARY
  TRACK 01 MODE1/2352
    INDEX 01 00:00:00
FILE "Guardian (Track 02).bin" BINARY
  TRACK 02 AUDIO
    INDEX 00 00:00:00
    INDEX 01 00:02:00
FILE "Guardian (Track 03).bin" BINARY
  TRACK 03 AUDIO
    INDEX 01 00:00:00
FILE "Guardian (Track 04).bin" BINARY
  TRACK 04 AUDIO
    INDEX 01 00:00:00
FILE "Guardian (Track 05).bin" BINARY
  TRACK 05 AUDIO
    INDEX 01 00:00:00
FILE "Guardian (Track 06).bin" BINARY
  TRACK 06 AUDIO
    INDEX 01 00:00:00
FILE "Guardian (Track 07).bin" BINARY
  TRACK 07 AUDIO
    INDEX 01 00:00:00
FILE "Guardian (Track 08).bin" BINARY
  TRACK 08 AUDIO
    INDEX 01 00:00:00
FILE "Guardian (Track 09).bin" BINARY
  TRACK 09 AUDIO
    INDEX 01 00:00:00
FILE "Guardian (Track 10).bin" BINARY
  TRACK 10 AUDIO
    INDEX 01 00:00:00
FILE "Guardian (Track 11).bin" BINARY
  TRACK 11 AUDIO
    INDEX 01 00:00:00
FILE "Guardian (Track 12).bin" BINARY
  TRACK 12 AUDIO
    INDEX 01 00:00:00
FILE "Guardian (Track 13).bin" BINARY
  TRACK 13 AUDIO
    INDEX 01 00:00:00

Write Offset: 222

DAT:

<rom name="Guardian (Track 01).bin" size="3158736" crc="c8ce1be9" md5="5b123873fc13c8aeaf4915c362be4041" sha1="9c424a2f3c951fb353ce6153b89621e178803133" />
<rom name="Guardian (Track 02).bin" size="34955424" crc="b89d5f9e" md5="cd460aee78ebb140cd78b06553102911" sha1="41424b8906f671ef809e4ef9f6783766d20c6d46" />
<rom name="Guardian (Track 03).bin" size="39118464" crc="1d9066ac" md5="a3ffe6f5db14ffd5efff8844e5b7633d" sha1="bad7d8ee7bcb348bcf575f5aea22590abd489e87" />
<rom name="Guardian (Track 04).bin" size="35879760" crc="ad4845d6" md5="8f4a50236a59c991e990c9c1603e9e19" sha1="797f62ab9121c65a8e3f268781aa9ec0b299f0f3" />
<rom name="Guardian (Track 05).bin" size="8636544" crc="20c7a480" md5="b745649887cb4aeca1c4d4d01cf150a0" sha1="8032e530c832fa6a9e75cd373708566b796a7ef8" />
<rom name="Guardian (Track 06).bin" size="12399744" crc="2c6bb271" md5="3b62e0cc3f3f6d7f3c9dcbaa995e1440" sha1="bd385e44991357edda173fbcf846f499543919c5" />
<rom name="Guardian (Track 07).bin" size="23313024" crc="3604154a" md5="8f303872f146cff3722aefb305f4876f" sha1="d910e7edd375c36bbbe3dfd68907ac67e186cf2e" />
<rom name="Guardian (Track 08).bin" size="22478064" crc="8dba5f51" md5="226402d29cd2c161ec194082df975655" sha1="a0359099c1ab864dae16bf5676b36f388e97960e" />
<rom name="Guardian (Track 09).bin" size="35430528" crc="dfc8d2c4" md5="e318eed081ffbaf3514bfa599137b531" sha1="dc2e6a5c7a81918297f5c8a10e3cd49045e7d0b0" />
<rom name="Guardian (Track 10).bin" size="30312576" crc="448c1970" md5="58564716ebfc6def88b35f41b26e16e3" sha1="a7495416b876c722db1deaa1a41efe25f77e36ef" />
<rom name="Guardian (Track 11).bin" size="9238656" crc="27db8308" md5="f2f9ace4f6d874fd2a0071fbd4e39da8" sha1="8c53515ec7fb18a6441f23a378638051b474d27b" />
<rom name="Guardian (Track 12).bin" size="26850432" crc="5567461e" md5="f1b72da4eb58eb677aa800dc2179ed8a" sha1="1662c81a2aa56a9c05187da5661a0d1ca07c826d" />
<rom name="Guardian (Track 13).bin" size="45544128" crc="69baa993" md5="90415d1bdf983dd20f2ed6fe1ec46d7d" sha1="a43a10e6cf86de2ed9b97aa066382db776650fa4" />