1 (edited by RevQuixo 2019-01-13 01:41:53)

Log:
https://drive.google.com/open?id=17rQkz … 5K1zGcAcxU

Title: Final Fight Revenge
System: Sega Saturn
Media Type: CD-ROM
Category: Games
Region: Japan
Languages: Japanese, English
Disc Serial: T-1249G 
Build Date: 20000208
Ringcode Information:
    Mastering Ring: T-1249GP-02566<tab>A
    Mould SID Code: IFI 3007
Barcode: 4 976219 354820
Error Count: 0
Version: V1.004
Edition/Release: Original
Comment: Stand-alone Version without RAM Cart
Header:

0000 : 53 45 47 41 20 53 45 47  41 53 41 54 55 52 4E 20   SEGA SEGASATURN 
0010 : 53 45 47 41 20 54 50 20  54 2D 31 32 20 20 20 20   SEGA TP T-12    
0020 : 54 2D 31 32 34 38 47 20  20 20 56 31 2E 30 30 34   T-1248G   V1.004
0030 : 32 30 30 30 30 32 30 38  43 44 2D 31 2F 31 20 20   20000208CD-1/1  
0040 : 4A 20 20 20 20 20 20 20  20 20 20 20 20 20 20 20   J               
0050 : 4A 57 20 20 20 20 20 20  20 20 20 20 20 20 20 20   JW              
0060 : 46 49 4E 41 4C 20 46 49  47 48 54 20 52 45 56 45   FINAL FIGHT REVE
0070 : 4E 47 45 20 20 20 20 20  20 20 20 20 20 20 20 20   NGE             
0080 : 20 20 20 20 20 20 20 20  20 20 20 20 20 20 20 20                   
0090 : 20 20 20 20 20 20 20 20  20 20 20 20 20 20 20 20                   
00A0 : 20 20 20 20 20 20 20 20  20 20 20 20 20 20 20 20                   
00B0 : 20 20 20 20 20 20 20 20  20 20 20 20 20 20 20 20                   
00C0 : 20 20 20 20 20 20 20 20  20 20 20 20 20 20 20 20                   
00D0 : 00 00 00 00 00 00 00 00  00 00 00 00 00 00 00 00   ................
00E0 : 00 00 18 00 00 00 00 00  00 00 00 00 00 00 00 00   ................
00F0 : 06 01 00 00 00 00 00 00  00 00 00 00 00 00 00 00   ................


Primary Volume Descriptor (PVD):

0320 : 20 20 20 20 20 20 20 20  20 20 20 20 20 32 30 30                200
0330 : 30 30 32 30 38 31 33 31  35 31 38 30 30 E0 32 30   0020813151800.20
0340 : 30 30 30 32 30 38 31 33  31 35 31 38 30 30 E0 30   00020813151800.0
0350 : 30 30 30 30 30 30 30 30  30 30 30 30 30 30 30 00   000000000000000.
0360 : 30 30 30 30 30 30 30 30  30 30 30 30 30 30 30 30   0000000000000000
0370 : 00 01 00 00 00 00 00 00  00 00 00 00 00 00 00 00   ................

Cuesheet:

FILE "Final Fight Revenge (Track 01).bin" BINARY
  TRACK 01 MODE1/2352
    INDEX 01 00:00:00
FILE "Final Fight Revenge (Track 02).bin" BINARY
  TRACK 02 AUDIO
    INDEX 00 00:00:00
    INDEX 01 00:02:00
FILE "Final Fight Revenge (Track 03).bin" BINARY
  TRACK 03 AUDIO
    INDEX 00 00:00:00
    INDEX 01 00:02:00
FILE "Final Fight Revenge (Track 04).bin" BINARY
  TRACK 04 AUDIO
    INDEX 00 00:00:00
    INDEX 01 00:02:00
FILE "Final Fight Revenge (Track 05).bin" BINARY
  TRACK 05 AUDIO
    INDEX 00 00:00:00
    INDEX 01 00:02:00
FILE "Final Fight Revenge (Track 06).bin" BINARY
  TRACK 06 AUDIO
    INDEX 00 00:00:00
    INDEX 01 00:02:00
FILE "Final Fight Revenge (Track 07).bin" BINARY
  TRACK 07 AUDIO
    INDEX 00 00:00:00
    INDEX 01 00:02:00
FILE "Final Fight Revenge (Track 08).bin" BINARY
  TRACK 08 AUDIO
    INDEX 00 00:00:00
    INDEX 01 00:02:00
FILE "Final Fight Revenge (Track 09).bin" BINARY
  TRACK 09 AUDIO
    INDEX 00 00:00:00
    INDEX 01 00:02:00
FILE "Final Fight Revenge (Track 10).bin" BINARY
  TRACK 10 AUDIO
    INDEX 00 00:00:00
    INDEX 01 00:02:00
FILE "Final Fight Revenge (Track 11).bin" BINARY
  TRACK 11 AUDIO
    INDEX 00 00:00:00
    INDEX 01 00:02:00
FILE "Final Fight Revenge (Track 12).bin" BINARY
  TRACK 12 AUDIO
    INDEX 00 00:00:00
    INDEX 01 00:02:00

Write Offset: 18

DAT:

<rom name="Final Fight Revenge (Track 01).bin" size="27412560" crc="67cfd79a" md5="1456b8fe3792b0cf19197a97899bb137" sha1="9abf2c478957d027bae69d3a8e6384aeb1d30d08" />
<rom name="Final Fight Revenge (Track 02).bin" size="3880800" crc="968abdf8" md5="978d1bc8f000fb4d5ad44c7968058234" sha1="912dcde943d916787a6118eb59656a49fc89546c" />
<rom name="Final Fight Revenge (Track 03).bin" size="23059008" crc="744d10fb" md5="b47831067f756753bc3fa5e5b13d147f" sha1="787c95384d2aa174fdfb7c83f95f2de6954cebb5" />
<rom name="Final Fight Revenge (Track 04).bin" size="21229152" crc="ac4fe4b9" md5="d6390dd87b2b1d1116c80c92bd31e2e6" sha1="7b3e139e0159b1cc517d58efd90e022f599f4f85" />
<rom name="Final Fight Revenge (Track 05).bin" size="22421616" crc="74072d00" md5="e650e3dbae88538c63d49b18cc11afab" sha1="69005ce255bcc7fd4db6b4e19bf85a09db50d842" />
<rom name="Final Fight Revenge (Track 06).bin" size="21690144" crc="05a29d3e" md5="17edf9b8b3d53daa5080aa3100e8eb4d" sha1="6373d4d85ef83377e5e180bd9c0e1168c1608313" />
<rom name="Final Fight Revenge (Track 07).bin" size="21304416" crc="c87e202c" md5="8880e78a19d668b5fff44f371c577025" sha1="29a370a19aab9b4256c67198facef6c20f3d373a" />
<rom name="Final Fight Revenge (Track 08).bin" size="20716416" crc="1211e029" md5="34a39b8e5c926b3531394550fe266228" sha1="358a06708c462c0f69ddc39aaa5a3a00a2d9927c" />
<rom name="Final Fight Revenge (Track 09).bin" size="22167600" crc="8fdafa22" md5="e2d4b12ee40491fe7efe39567f0c9d24" sha1="95a8b2665da96ff2710d6c1b22f83e44609b5821" />
<rom name="Final Fight Revenge (Track 10).bin" size="22089984" crc="d1b53aa1" md5="12ec651d34d757e1c9b91eada418fd5d" sha1="5d7c2dbd3bf9f0d35bb926748ba6de934ee438ff" />
<rom name="Final Fight Revenge (Track 11).bin" size="20690544" crc="4a88cd79" md5="8a894bf4fd215de2a99cc08d66ae20db" sha1="f915c951fcf07b8a2265e53ac4ad5e5b5726acaf" />
<rom name="Final Fight Revenge (Track 12).bin" size="25274592" crc="83f92ae6" md5="a068f71cf4d55327b09f6efcf1853af3" sha1="16b922b76fcd86e303274dd98da71ca53a1cc85b" />