1 (edited by Peepo_UK 2019-01-11 12:28:51)

Added via new disc form

Title: Savage Reign ~ Fūun Mokushiroku: Kakutou Sousei
風雲黙示録 ~格闘創世~
Disc Number / Letter: (OPTIONAL)
Disc Title: (OPTIONAL)
System: SNK Neo Geo CD
Media Type: CD-ROM
Category: Games
Region: Japan
Languages: English, Japanese, Spanish, Portuguese
Disc Serial: NGCD-059
Ringcode Information:
    Mastering Ring: NGCD-059 MT    B01
    Mastering SID Code: IFPI L262
    Mould SID Code: IFPI 4405
    Additional Mould: L
    Toolstamp or Mastering Code: (REQUIRED, IF EXISTS)
Barcode (Obi): T4964808 50069 7
Error Count: 0
Comments: (OPTIONAL)
Contents: (OPTIONAL)
Version: (REQUIRED, IF EXISTS)
Edition/Release: Original
Primary Volume Descriptor (PVD):

0320 : 20 20 20 20 20 20 20 20  20 20 20 20 20 31 39 39                199
0330 : 35 30 36 30 32 31 37 33  30 32 30 30 30 00 31 39   5060217302000.19
0340 : 39 35 30 36 30 32 31 37  33 30 32 30 30 30 00 30   95060217302000.0
0350 : 30 30 30 30 30 30 30 30  30 30 30 30 30 30 30 00   000000000000000.
0360 : 31 39 39 35 30 36 30 32  31 37 33 30 32 30 30 30   1995060217302000
0370 : 00 01 00 00 00 00 00 00  00 00 00 00 00 00 00 00   ................

Cuesheet:

FILE "SavageReign (Track 01).bin" BINARY
  TRACK 01 MODE1/2352
    FLAGS DCP
    INDEX 01 00:00:00
    INDEX 02 00:04:00
    INDEX 03 00:08:00
    INDEX 04 00:12:00
    INDEX 05 00:16:00
    INDEX 06 00:20:00
    INDEX 07 00:24:00
    INDEX 08 00:28:00
    INDEX 09 00:32:00
    INDEX 10 00:36:00
    INDEX 11 00:40:00
    INDEX 12 00:44:00
    INDEX 13 00:48:00
    INDEX 14 00:52:00
    INDEX 15 00:56:00
    INDEX 16 01:00:00
    INDEX 17 01:04:00
    INDEX 18 01:08:00
    INDEX 19 01:12:00
    INDEX 20 01:16:00
    INDEX 21 01:20:00
    INDEX 22 01:24:00
    INDEX 23 01:28:00
    INDEX 24 01:32:00
    INDEX 25 01:36:00
    INDEX 26 01:40:00
    INDEX 27 01:44:00
    INDEX 28 01:48:00
    INDEX 29 01:52:00
    INDEX 30 01:56:00
    INDEX 31 02:00:00
    INDEX 32 02:04:00
    INDEX 33 02:08:00
    INDEX 34 02:12:00
    INDEX 35 02:16:00
    INDEX 36 02:20:00
    INDEX 37 02:24:00
    INDEX 38 02:28:00
    INDEX 39 02:32:00
    INDEX 40 02:36:00
    INDEX 41 02:40:00
    INDEX 42 02:44:00
    INDEX 43 02:48:00
    INDEX 44 02:52:00
    INDEX 45 02:56:00
    INDEX 46 03:00:00
    INDEX 47 03:04:00
    INDEX 48 03:08:00
    INDEX 49 03:12:00
    INDEX 50 03:16:00
    INDEX 51 03:20:00
    INDEX 52 03:24:00
    INDEX 53 03:28:00
    INDEX 54 03:32:00
    INDEX 55 03:36:00
    INDEX 56 03:40:00
    INDEX 57 03:44:00
    INDEX 58 03:48:00
    INDEX 59 03:52:00
    INDEX 60 03:56:00
    INDEX 61 04:00:00
    INDEX 62 04:04:00
    INDEX 63 04:08:00
    INDEX 64 04:12:00
    INDEX 65 04:16:00
    INDEX 66 04:20:00
    INDEX 67 04:24:00
    INDEX 68 04:28:00
    INDEX 69 04:32:00
    INDEX 70 04:36:00
    INDEX 71 04:40:00
    INDEX 72 04:44:00
    INDEX 73 04:48:00
    INDEX 74 04:52:00
    INDEX 75 04:56:00
    INDEX 76 05:00:00
    INDEX 77 05:04:00
    INDEX 78 05:08:00
    INDEX 79 05:12:00
    INDEX 80 05:16:00
    INDEX 81 05:20:00
    INDEX 82 05:24:00
    INDEX 83 05:28:00
    INDEX 84 05:32:00
    INDEX 85 05:36:00
FILE "SavageReign (Track 02).bin" BINARY
  TRACK 02 AUDIO
    FLAGS DCP
    INDEX 00 00:00:00
    INDEX 01 00:03:00
FILE "SavageReign (Track 03).bin" BINARY
  TRACK 03 AUDIO
    FLAGS DCP
    INDEX 01 00:00:00
FILE "SavageReign (Track 04).bin" BINARY
  TRACK 04 AUDIO
    FLAGS DCP
    INDEX 01 00:00:00
FILE "SavageReign (Track 05).bin" BINARY
  TRACK 05 AUDIO
    FLAGS DCP
    INDEX 01 00:00:00
FILE "SavageReign (Track 06).bin" BINARY
  TRACK 06 AUDIO
    FLAGS DCP
    INDEX 01 00:00:00
FILE "SavageReign (Track 07).bin" BINARY
  TRACK 07 AUDIO
    FLAGS DCP
    INDEX 01 00:00:00
FILE "SavageReign (Track 08).bin" BINARY
  TRACK 08 AUDIO
    FLAGS DCP
    INDEX 01 00:00:00
FILE "SavageReign (Track 09).bin" BINARY
  TRACK 09 AUDIO
    FLAGS DCP
    INDEX 01 00:00:00
FILE "SavageReign (Track 10).bin" BINARY
  TRACK 10 AUDIO
    FLAGS DCP
    INDEX 01 00:00:00
FILE "SavageReign (Track 11).bin" BINARY
  TRACK 11 AUDIO
    FLAGS DCP
    INDEX 01 00:00:00
FILE "SavageReign (Track 12).bin" BINARY
  TRACK 12 AUDIO
    FLAGS DCP
    INDEX 01 00:00:00
FILE "SavageReign (Track 13).bin" BINARY
  TRACK 13 AUDIO
    FLAGS DCP
    INDEX 01 00:00:00
FILE "SavageReign (Track 14).bin" BINARY
  TRACK 14 AUDIO
    FLAGS DCP
    INDEX 01 00:00:00
FILE "SavageReign (Track 15).bin" BINARY
  TRACK 15 AUDIO
    FLAGS DCP
    INDEX 01 00:00:00
FILE "SavageReign (Track 16).bin" BINARY
  TRACK 16 AUDIO
    FLAGS DCP
    INDEX 01 00:00:00
FILE "SavageReign (Track 17).bin" BINARY
  TRACK 17 AUDIO
    FLAGS DCP
    INDEX 01 00:00:00
FILE "SavageReign (Track 18).bin" BINARY
  TRACK 18 AUDIO
    FLAGS DCP
    INDEX 01 00:00:00
FILE "SavageReign (Track 19).bin" BINARY
  TRACK 19 AUDIO
    FLAGS DCP
    INDEX 01 00:00:00
FILE "SavageReign (Track 20).bin" BINARY
  TRACK 20 AUDIO
    FLAGS DCP
    INDEX 01 00:00:00
FILE "SavageReign (Track 21).bin" BINARY
  TRACK 21 AUDIO
    FLAGS DCP
    INDEX 01 00:00:00
FILE "SavageReign (Track 22).bin" BINARY
  TRACK 22 AUDIO
    FLAGS DCP
    INDEX 01 00:00:00
FILE "SavageReign (Track 23).bin" BINARY
  TRACK 23 AUDIO
    FLAGS DCP
    INDEX 01 00:00:00
FILE "SavageReign (Track 24).bin" BINARY
  TRACK 24 AUDIO
    FLAGS DCP
    INDEX 01 00:00:00
FILE "SavageReign (Track 25).bin" BINARY
  TRACK 25 AUDIO
    FLAGS DCP
    INDEX 01 00:00:00
FILE "SavageReign (Track 26).bin" BINARY
  TRACK 26 AUDIO
    FLAGS DCP
    INDEX 01 00:00:00
FILE "SavageReign (Track 27).bin" BINARY
  TRACK 27 AUDIO
    FLAGS DCP
    INDEX 01 00:00:00
FILE "SavageReign (Track 28).bin" BINARY
  TRACK 28 AUDIO
    FLAGS DCP
    INDEX 01 00:00:00
FILE "SavageReign (Track 29).bin" BINARY
  TRACK 29 AUDIO
    FLAGS DCP
    INDEX 01 00:00:00
FILE "SavageReign (Track 30).bin" BINARY
  TRACK 30 AUDIO
    FLAGS DCP
    INDEX 01 00:00:00
FILE "SavageReign (Track 31).bin" BINARY
  TRACK 31 AUDIO
    FLAGS DCP
    INDEX 01 00:00:00
FILE "SavageReign (Track 32).bin" BINARY
  TRACK 32 AUDIO
    FLAGS DCP
    INDEX 01 00:00:00
FILE "SavageReign (Track 33).bin" BINARY
  TRACK 33 AUDIO
    FLAGS DCP
    INDEX 01 00:00:00
FILE "SavageReign (Track 34).bin" BINARY
  TRACK 34 AUDIO
    FLAGS DCP
    INDEX 01 00:00:00
FILE "SavageReign (Track 35).bin" BINARY
  TRACK 35 AUDIO
    FLAGS DCP
    INDEX 01 00:00:00

Write Offset: 2

DAT:

<rom name="SavageReign (Track 01).bin" size="59562048" crc="89074587" md5="ed12060f02e8347ce639261943d2ad27" sha1="610515a22118f4c2593969cf39531c2ec8569c93" />
<rom name="SavageReign (Track 02).bin" size="7180656" crc="f0eba4d9" md5="d80f6da29ed83c8fdb004ec68cd35d7c" sha1="c1e1e76d9cd0bb05667d1b6637800dae7729272e" />
<rom name="SavageReign (Track 03).bin" size="9565584" crc="7f4198c6" md5="668af8c942d6d9672808a4fb2b6f62c9" sha1="0a520c05993d6b65732ba6b0926d3b1dd867d1a6" />
<rom name="SavageReign (Track 04).bin" size="12345648" crc="f872ddc9" md5="59643f813e5a58a7b0d6f3009e3de08a" sha1="1d7fd3714830d3b091bd3fa36342736ccbe035c4" />
<rom name="SavageReign (Track 05).bin" size="4123056" crc="073c740c" md5="2d261977cf1cd130e8832ed6780cff46" sha1="46159128ffb84aa4876c75d591e622e9828101bc" />
<rom name="SavageReign (Track 06).bin" size="2415504" crc="c832453f" md5="c477979f9dcc84d0de82439fedeb4dd4" sha1="2786ad667c0b3fe55304e73fa3e538a71faccb61" />
<rom name="SavageReign (Track 07).bin" size="3368064" crc="fddd2987" md5="ad9a1198c816260a3d99cbcee699050c" sha1="505635b17881e27c8ccd0e87117ae96364619738" />
<rom name="SavageReign (Track 08).bin" size="18837168" crc="64045236" md5="b8dbd56accc43dfe2488343da1f40823" sha1="c882c87f47bd4a506a85cd85c15dc05a83663858" />
<rom name="SavageReign (Track 09).bin" size="35924448" crc="5d701087" md5="c259f9c37470826cd3369a7fd929f656" sha1="38dfe3016abb325243cf5720b11661eb607ba5b3" />
<rom name="SavageReign (Track 10).bin" size="2354352" crc="ad2df538" md5="d6eb144044d14406346264ac9421b5c3" sha1="dc8d91b422cb25f51a209fb3e69742c70d295048" />
<rom name="SavageReign (Track 11).bin" size="35275296" crc="ca287cd1" md5="770e2839d06d6d4a3bbfd8d9c29335b1" sha1="199688e38fb5bcd0cac8448603b9e43122502a23" />
<rom name="SavageReign (Track 12).bin" size="34348608" crc="67ce0a68" md5="2602d3413529bb457e17238d5e1e9f60" sha1="1cee9f505a9d00b414741ebac8157cb54165c495" />
<rom name="SavageReign (Track 13).bin" size="2354352" crc="ad2df538" md5="d6eb144044d14406346264ac9421b5c3" sha1="dc8d91b422cb25f51a209fb3e69742c70d295048" />
<rom name="SavageReign (Track 14).bin" size="35912688" crc="eed26f3d" md5="7cbae3104faa823f57d3319794128c90" sha1="8e84347810c3f87c8e323be9f51939cdeaa54655" />
<rom name="SavageReign (Track 15).bin" size="34717872" crc="e176d6ad" md5="5b09deff12810e53613a8e6dc0723577" sha1="0ad45633c9e0d1209fdc66fe9557ec13089f3de9" />
<rom name="SavageReign (Track 16).bin" size="2354352" crc="ad2df538" md5="d6eb144044d14406346264ac9421b5c3" sha1="dc8d91b422cb25f51a209fb3e69742c70d295048" />
<rom name="SavageReign (Track 17).bin" size="35432880" crc="c1095ef0" md5="c5f44bb70d5c358659a0d06c8fa494f7" sha1="b7728648d0f1d2c4b20da477060f0f965fb0fb0e" />
<rom name="SavageReign (Track 18).bin" size="34903680" crc="46eb5d30" md5="ec074825cd7dc6424d99a4d79587bc39" sha1="d19f3f0d0a15def0dd314ff904d22d6439d44e36" />
<rom name="SavageReign (Track 19).bin" size="2354352" crc="ad2df538" md5="d6eb144044d14406346264ac9421b5c3" sha1="dc8d91b422cb25f51a209fb3e69742c70d295048" />
<rom name="SavageReign (Track 20).bin" size="34045200" crc="b1ea6d68" md5="c8dc96e66568c8ac7867961342fc97bc" sha1="7e6f89f1c50db42133cd59095d0c9964a11bf00a" />
<rom name="SavageReign (Track 21).bin" size="34278048" crc="e940cd6b" md5="eeeab247a0ad81ea3366e75acaf5a84e" sha1="fb9ab1bb3d2cdded3ec74dab75ea7f169cfd2d7f" />
<rom name="SavageReign (Track 22).bin" size="2354352" crc="ad2df538" md5="d6eb144044d14406346264ac9421b5c3" sha1="dc8d91b422cb25f51a209fb3e69742c70d295048" />
<rom name="SavageReign (Track 23).bin" size="33445440" crc="dff61a7f" md5="dd51ea91a5c5d6fc27dd9393fbb0eed6" sha1="aefef5b44d8c64b69d5ba534bb0b88ca1488f437" />
<rom name="SavageReign (Track 24).bin" size="5315520" crc="c58f8f3b" md5="0931e0f723573ec823a598cbaff82042" sha1="384985ce7c677e6fb24995814259f9141386d06e" />
<rom name="SavageReign (Track 25).bin" size="9095184" crc="63c79454" md5="55f37a4526e8a323666686e2102b1152" sha1="b8b70e8cbd88eeb01ee52accc90ff52541794da1" />
<rom name="SavageReign (Track 26).bin" size="2648352" crc="04a4677d" md5="6c284b889f2ff744c2b72fbf15414d73" sha1="af1ad592b4fa26cc90b81248e4c6eb5e03c49fbe" />
<rom name="SavageReign (Track 27).bin" size="33092640" crc="c8eaabb7" md5="4d48fd51fd2f4b2ed5a210880cff36c2" sha1="71b2665dee1b2982771d2fefc7988a33ee7bf52b" />
<rom name="SavageReign (Track 28).bin" size="12355056" crc="82422142" md5="83eb90e062695ae163244a12d1c7bfe6" sha1="1db85f89453bc3f223ffac95b0cc31d358a6ca5c" />
<rom name="SavageReign (Track 29).bin" size="12625536" crc="f1e6302a" md5="749d7833aa95a94e9d0ad9bd7c953238" sha1="03f904400a58e4563e1f789b090745f835863c6e" />
<rom name="SavageReign (Track 30).bin" size="17635296" crc="db945db2" md5="3a2d3bf1e168cad76efdebf46ddbc673" sha1="90d21a2da995c13c636050b75124d392c60adb8b" />
<rom name="SavageReign (Track 31).bin" size="4708704" crc="f1b46d89" md5="12c3425d25c18851c7142a0da4bc02a9" sha1="b3f3871cfba085d95b2b4876fd64765d7a077774" />
<rom name="SavageReign (Track 32).bin" size="18670176" crc="dee8b65e" md5="08eff5ddf4835c905460eb0017efd2c3" sha1="4a5ec9d61d92a41823217eebca0f4c6b160f1de5" />
<rom name="SavageReign (Track 33).bin" size="17385984" crc="0467f5bc" md5="f297059285b0116f3951a046324d6085" sha1="06557ef03ea9b747b68942c76cfd0ffd62403da4" />
<rom name="SavageReign (Track 34).bin" size="12907776" crc="c1ee8fb0" md5="27bbc8b9680a069f2c782811e6bb845c" sha1="2153d3937a899dd62124bff11224c2ed08be59eb" />
<rom name="SavageReign (Track 35).bin" size="21076272" crc="b32d4cbe" md5="bd0d9a442c47ab0626554f2f25dba761" sha1="52a8ae41a72848003aa3bce8b5b3719764569f1e" />

Logs: https://mega.nz/#!FYRjiQRZ!YbFJyzP0RUky … s9C0gWLWfQ

I dumped this disc a while ago but didn't submit it
have since sold / traded the disc so can't verify the ring
but can verify the cue / tracks.


Logs from my dump.
https://mega.nz/#!310HCYrT!mU02jhR0D3pN … YviJJfeoi8